[TR24][SACD-R][SM][OF] Boccherini, D’Astorga - Stabat Mater (Robert King) - 1999 (Classical)


Статистика раздачи [Обновить пиров]
Размер:  1.17 GB   |    Зарегистрирован:  8 месяцев 18 дней   |    Скачан:  0 раз

Полного источника не было: Никогда

 
   
 
 
 

[Цитировать]

Boccherini, D’Astorga - Stabat Mater (Robert King)
Год издания: 1999
Жанр: Classical
Издатель (лейбл): Hyperion UK / SACDA67108
Продолжительность: 01:13:33
Наличие сканов: да
Источник (релизер)/ссылка на официальность: sa-cd
Исполнители:
Susan Gritton, Sarah Fox (soprano)
Susan Bickley (mezzo soprano)
Paul Agnew (tenor)
Peter Harvey (bass)
The King's Consort
The Choir of the King's Consort
Robert King (conductor)

Треклист:

Luigi Boccherini:
Stabat Mater (1800 version), Op. 61
01. Stabat Mater dolorosa (06:21)
02. Cuius animam gementem (02:45)
03. Quae moerebat et dolebat (03:09)
04. Quis est homo, qui non fleret (01:33)
05. Pro peccatis suae gentis (04:15)
06. Eia Mater, fons amoris (06:45)
07. Tui nati vulnerari (04:27)
08. Virgo virginum praeclara (05:07)
09. Fac ut portem Christi mortem (02:32)
10. Fac me plagis vulnerari (02:15)
11. Quando corpus morietur (06:37)
Emanuele d'Astorga:
Stabat Mater
12. Stabat Mater dolorosa (03:41)
13. O quam tristis et afflicta (03:31)
14. Quis est homo, qui non fleret (04:04)
15. Eia Mater, fons amoris (03:13)
16. Sancta Mater, istud agas (02:52)
17. Fac me tecum pie flere (02:50)
18. Virgo virginum praeclara (01:28)
19. Fac me plagis vulnerari (01:57)
20. Christe quum sit hinc exire (04:11)
-Контейнер: FLAC (*.flac)
Тип рипа: tracks
Разрядность: 24bit / 88,2kHz
Количество каналов: 2.0-

Динамический диапазон - DR

foobar2000 1.3.2 / Замер динамического диапазона (DR) 1.1.1
Дата отчёта: 2015-08-23 15:22:11
--------------------------------------------------------------------------------
Анализ: The King's Consort / Boccherini & d'Astorga Stabat Mater
--------------------------------------------------------------------------------
DR Пики RMS Продолжительность трека
--------------------------------------------------------------------------------
DR15 -5.92 дБ -29.16 дБ 6:21 01-Stabat Mater dolorosa
DR14 -6.61 дБ -26.44 дБ 2:45 02-Cuius animam gementem
DR13 -5.35 дБ -24.94 дБ 3:09 03-Quae moerebat et dolebat
DR10 -15.51 дБ -33.25 дБ 1:33 04-Quis est homo, qui non fleret
DR17 -5.11 дБ -30.80 дБ 4:15 05-Pro peccatis suae gentis
DR16 -3.43 дБ -25.88 дБ 6:45 06-Eia Mater, fons amoris
DR14 -7.51 дБ -28.28 дБ 4:27 07-Tui nati vulnerari
DR17 -4.51 дБ -27.94 дБ 5:07 08-Virgo virginum praeclara
DR16 -6.07 дБ -28.09 дБ 2:32 09-Fac ut portem Christi mortem
DR13 -2.06 дБ -22.97 дБ 2:15 10-Fac me plagis vulnerari
DR14 -7.86 дБ -28.58 дБ 6:37 11-Quando corpus morietur
DR14 -4.93 дБ -25.93 дБ 3:41 12-Stabat Mater dolorosa
DR15 -6.47 дБ -27.75 дБ 3:31 13-O quam tristis et afflicta
DR16 -4.84 дБ -27.86 дБ 4:04 14-Quis est homo, qui non fleret
DR14 -3.54 дБ -24.00 дБ 3:13 15-Eia Mater, fons amoris
DR15 -10.56 дБ -31.28 дБ 2:52 16-Sancta Mater, istud agas
DR14 -10.51 дБ -29.97 дБ 2:50 17-Fac me tecum pie flere
DR13 -6.69 дБ -26.63 дБ 1:28 18-Virgo virginum praeclara
DR14 -8.79 дБ -28.26 дБ 1:57 19-Fac me plagis vulnerari
DR13 -6.83 дБ -25.28 дБ 4:11 20-Christe quum sit hinc exire
--------------------------------------------------------------------------------
Количество треков: 20
Реальные значения DR: DR14
Частота: 88200 Гц
Каналов: 2
Разрядность: 24
Битрейт: 2141 кбит/с
Кодек: FLAC
================================================================================
[teatrix.ru].t22074.torrent 
Торрент: Зарегистрирован [ 2016-03-20 12:45 ] · B21B33FD3E11569E9D1F142609125F6BCA151BFA

Скачать .torrent

Скачать

16 KB

Статус: проверено
Скачан: 0 раз
Размер: 1.17 GB
terms.php



Быстрый ответ

Имя:

      
Для отправки сообщений необходимо включить JavaScript
Показать сообщения:    

Текущее время: 07-Дек 13:40

Часовой пояс: UTC + 3


Вы можете начинать темы
Вы можете отвечать на сообщения
Вы не можете редактировать свои сообщения
Вы не можете удалять свои сообщения
Вы не можете голосовать в опросах
Вы не можете прикреплять файлы к сообщениям
Вы можете скачивать файлы