Юбилейный вечер Юрия Соломина [2015 г., Юбилейный вечер, SATRip] Малый театр


Статистика раздачи [Обновить пиров]
Размер:  1.46 GB   |    Зарегистрирован:  8 месяцев 20 дней   |    Скачан:  0 раз

Полного источника не было: Никогда

 
   
 
 
 

[Цитировать]

Юбилейный вечер Юрия Соломина К 80-летию Юрия Мефодьевича Соломина.
(18 июня 1935)

Название театра: Государственный академический Малый театр.
Год выпуска: 2015.
Жанр: Юбилейный вечер.
Продолжительность: 02:34:20.
Участвуют: Артисты театра.
Поздравили:
Художественный руководитель театра Ленком, профессор, полный кавалер ордена "За заслуги перед Отечеством", народный артист СССР Марк Захаров, народный артист России Дмитрий Певцов, Анна Большова, Художественный руководитель театра МХТ имени А.П. Чехова, Художественный руководитель Московского театра-студии "Табакерка", народный артист СССР Олег Табаков, председатель Следственного Комитета РФ Александр Бастрыкин, член Патриаршего совета по культуре Протоиерей Димитрий Рощин, народный артист СССР Иосиф Кобзон, народная артистка СССР Юлия Борисова, народный артист СССР Василий Лановой, народная артистка СССР Элина Быстрицкая, артисты МХАТа имени А.М.Горького, артисты Театра Сатиры и многие другие.
Описание:
Художественный руководитель Малого театра Юрий Соломин отметил 80-летие. Больших торжеств хотел избежать. Но коллеги по театру решили иначе. Они поставили Юрия Мефодьевича перед фактом – его ждет праздник. Но, каким будет грандиозный капустник, актеры и сотрудники всех театральных цехов держали от худрука в секрете.
Борис Клюев, знаменитый граф Рошфор, в этот вечер поменял графский сюртук на пиджак охранника. Евгения Глушенко перебралась в гардероб. Ирина Муравьева в роли билетерши не признается в том, что она – та самая Муравьева: "Я сорок лет здесь билетершей работаю, вы меня с кем-то спутали". В этот вечер актриса настроена играть только для одного человека. "Сегодня такое единение в театре, бурлим", – объясняет она. Администратор Василий Бочкарев тоже из своих, из актерских. Отвечает за порядок вечера.
На свой юбилей, в родной Малый, Юрий Соломин впервые пришел как зритель. Каждый шаг худрука фиксировала камера, транслируя происходящее в зал. На экране публика видела, как звезды труппы, ставшие на один вечер охранниками, гардеробщиками, билетерами и администратором, сопровождают Соломина в зрительский зал.
На сцене – сводный хор артистов, костюмеров, осветителей, буфетчиков, гримеров. С таким худруком запели даже сапожники и бухгалтеры.
Под ритмы канкана, кажется, что также легко и играючи Юрий Соломин покорил Москву, сыграл в ста фильмах, получил "Оскар" за "Дерсу Узала", и уже 28 лет легендарный "Адъютант его превосходительства" рулит Малым театром, успевая преподавать, ставить, играть.
Труппа месяц готовила этот вечер. Остроумный капустник, поздравления друзей театра заставили зал плакать и смеяться. Юбиляр, следя за своей звездной жизнью на сцене, с улыбкой принимал поздравления. Два часа яркого шоу превратились в триумф Юрия Соломина. И, кажется, он был счастлив от этого.

Дополнительная информация:
Страна: Россия .
Авторы идеи: Людмила Титова, Ольга Жевакина, Ирина Жерякова, Григорий Скряпкин.
Композиторы: Григорий Гоберник, Эдуард Глейзер.
Оформление сцены: Александр Глазунов.
Хореограф: Марина Остапенко-Белоусова.
Операторы: Евгений Павлов, Максим Редин, Александра Павлова.


Релиз
Качество видео:...SATRip
Формат:.................AVI
Видео:..720x400 (1.80:1), 25 fps, XviD MPEG-4 ~1214 kbps avg, 0.17 bit/pixel
Аудио:..48 kHz, MPEG Layer 3, 2 ch, ~128.00 kbps avg

Отчет MI

Общее
Полное имя : Yubileinyi.vecher.Yuriya.Solomina.2015.XviD.SATRip.fenixclub.avi
Format : AVI
Format/Info : Audio Video Interleave
File size : 1.46 GiB
Duration : 2h 34mn
Overall bit rate : 1 352 Kbps
Writing application : VirtualDubMod 1.5.10.3 | www.virtualdub-fr.org || (build 2550/release)
Writing library : VirtualDubMod build 2550/release
Video
ID : 0
Format : MPEG-4 Visual
Format profile : Advanced Simple@L5
Format settings, BVOP : 2
Format settings, QPel : No
Format settings, GMC : No warppoints
Format settings, Matrix : Default (H.263)
Muxing mode : Packed bitstream
Codec ID : XVID
Codec ID/Hint : XviD
Duration : 2h 34mn
Bit rate : 1 215 Kbps
Width : 720 pixels
Height : 400 pixels
Display aspect ratio : 16:9
Frame rate : 25.000 fps
Color space : YUV
Chroma subsampling : 4:2:0
Bit depth : 8 bits
Scan type : Progressive
Compression mode : Lossy
Bits/(Pixel*Frame) : 0.169
Stream size : 1.31 GiB (90%)
Writing library : XviD 1.2.1 (UTC 2008-12-04)
Audio
ID : 1
Format : MPEG Audio
Format version : Version 1
Format profile : Layer 3
Codec ID : 55
Codec ID/Hint : MP3
Duration : 2h 34mn
Bit rate mode : Constant
Bit rate : 128 Kbps
Channel(s) : 2 channels
Sampling rate : 48.0 KHz
Compression mode : Lossy
Stream size : 141 MiB (9%)
Alignment : Aligned on interleaves
Interleave, duration : 40 ms (1.00 video frame)
Interleave, preload duratio : 504 ms
Writing library : LAME3.99r
Encoding settings : -m s -V 4 -q 2 -lowpass 17 -b 128

Скриншот с названием вечера

Скриншоты


Альтернативный хост


[teatrix.ru].t22075.torrent 
Торрент: Зарегистрирован [ 2016-03-20 12:45 ] · 485E289AD0AE201DA0EFAC0DAC182FE614C3B05A

Скачать .torrent

Скачать

15 KB

Статус: проверено
Скачан: 0 раз
Размер: 1.46 GB
terms.php



Быстрый ответ

Имя:

      
Для отправки сообщений необходимо включить JavaScript
Показать сообщения:    

Текущее время: 10-Дек 08:04

Часовой пояс: UTC + 3


Вы можете начинать темы
Вы можете отвечать на сообщения
Вы не можете редактировать свои сообщения
Вы не можете удалять свои сообщения
Вы не можете голосовать в опросах
Вы не можете прикреплять файлы к сообщениям
Вы можете скачивать файлы