[TR24][SM][OF] Georges Bizet - Carmen (Magdalena Kozena, Jonas Kaufmann, Berliner Philharmoniker, Sir Simon Rattle) - 2012 (Classical)


Статистика раздачи [Обновить пиров]
Размер:  1.32 GB   |    Зарегистрирован:  8 месяцев 22 дня   |    Скачан:  1 раз

Полного источника не было: 6 дней

 
   
 
 
 

[Цитировать]

Georges Bizet - Carmen (Magdalena Kozena, Jonas Kaufmann, Berliner Philharmoniker, Sir Simon Rattle)
Год издания: 2012
Жанр: Classical
Издатель (лейбл): Warner Classics International
Продолжительность: 02:29:40
Наличие сканов: да
Источник (релизер)/ссылка на официальность: hdtracks
Исполнители:
Magdalena Kožená - Mezzo Soprano, Carmen
Jonas Kaufmann - Tenor, Don José
Genia Kühmeier - Soprano, Micaëla
Kostas Smoriginas - Baritone, Escamillo
Christian van Horn - Bass-baritone, Zuniga
Andrè Schuen - Bass-baritone, Moralès
Christina Landshamer - Soprano, Frasquita
Rachel Frenkel - Mezzosoprano, Mercédès
Jean-Paul Fouchécourt - Tenor, Remendado
Simone del Savio - Baritone, Dancaïro
Chor der Deutschen Staatsoper Berlin
Chor & Kinderchor der Deutschen Staatsoper Berlin
Berliner Philharmoniker
Sir Simon Rattle (conductor)

Треклист:

01. Prelude (03:20)
Act 1:
02. "Sur la place, chacun passe, chacun vient, chacun va" (Morales, Dragons) (02:01)
03. "Regardez donc cette petite qui semble vouloir nous parler" (Morales, Micaela, Dragons) (04:03)
04. "Avec la garde montante, nous arrivons, nous voila!" (Enfants) (04:43)
05. "La cloche a sonne; nous, des ouvrieres" (Jeunes gens) (04:01)
06. "Mais nous ne voyons pas la Carmencita!" "Quand je vous aimerai?" (Jeunes gens, Dragons, Cigarieres, Carmen) (01:09)
07. "L'amour est un oiseau rebelle" (Carmen, Cigarieres, Jeunes gens, Dragons) (04:19)
08. "Carmen! sur tes pas nous nous pressons tous!" (Jeunes gens, Cigarieres) (01:59)
09. "Que est-ce-que ca veut dire, ces fa (00:17)
10. "Parle-moi de ma mere" (Don Jose, Micaela) (09:36)
11. "Attends un peu" (Don Jose, Micaela) (00:43)
12. "Au secours!" (Zuniga, Cigarieres) (03:00)
13. "Eh bien, Jose? Qu'est-ce qui c'est passe?" (Zuniga, Don Jose) (00:13)
14. "Avez-vous quelque chose a repondre?" - "Tra la, la, la, coupe-moi" (Zuniga, Carmen) (03:06)
15. "Laissez-moi echapper" (Carmen, Don Jose) (00:30)
16. "Pres des remparts de Seville" (Carmen, Don Jose) (04:32)
17. "Voice l'ordre, partez" (Zuniga, Carmen) (02:23)
Act 2:
18. "Entreacte (01:41)
19. "Les tringles des sistres tintaient avec un eclat metallique" (Carmen, Frasquita, Mercedes) (04:34)
20. "Vivat! vivat le Torero!" (Amis d'Escamillo, Zuniga, Carmen, Frasquita, Mercedes, Morales) (01:16)
21. "Votre toast, je peux vouz le rendre"/ "Toreador, en garde!" (Escamillo, Carmen, Frasquita, Mercedes, Morales, Zuniga) (05:02)
22. "Dis-moi ton nom" (Escamillo, Carmen) (00:42)
23. "Toreador, en garde" (Amis d'Escamillo) (01:11)
24. "Eh bien monsieur, quelles nouvelles" (Frasquita, Dancairo, Mercedes, Remendado) (00:18)
25. "Nous avons en tete une affaire" (Dancairo, Frasquita, Mercedes, Remendado, Carmen) (04:50)
26. "Partez sans moi, j'irai vous rejoindre demain" (Carmen, Frasquita, Mercedes, Remendado, Dancairo, Don Jose) (01:30)
27. "Enfin, te voila!" (Carmen, Don Jose) (00:36)
28. "Je vais danser en votre honneur" (Carmen) (00:34)
29. "La-la-la-la" / "Attends un peu, Carmen" (Carmen, Don Jose) (02:12)
30. "Au quartier! pour l'appel?" (Carmen, Don Jose) (02:51)
31. "La fleur que tu m'avais jetee" (Don Jose) (04:26)
32. "Non! tu ne m'aimes pas!" (Carmen, Don Jose) (02:48)
33. "Non! Je ne veux plus t'ecouter!" (Don Jose, Carmen) (01:09)
34. "Hola! Carmen! hola! hola!" (Zuniga, Don Jose, Carmen) (01:22)
35. "Bel officier, l'amour vous joue en ce moment un assez vilain tour!" (Carmen, Remendado, Dancairo, Bohemiens, Zuniga) (01:13)
36. "Plus tard!" / "La guerre, c'est la guerre!" (Zuniga, Dancairo, Remendado, Bohemiens, Carmen, Don Jose, Frasquita, Mercedes, Bohemiens) (02:31)
Act 3:
37. Entr'acte (02:39)
38. "Ecoute, ecoute, compagnon, ecoute!" (Bohemiens) (02:40)
39. "Notre metier est bien" (Carmen, Don Jose, Frasquita, Mercedes, Dancairo, Remendado, Bohemiens et Bohemiennes) (01:39)
40. "A quoi tu penses?" (Carmen, Don Jose) (00:38)
41. "Melons! Coupons!" (Frasquita, Mercedes) (03:07)
42. "Voyons que j'essaie a mon tour" (Carmen) (01:02)
43. "En vain pour eviter" (Carmen) (02:09)
44. "La mort" / "Parlez encor, parlez mes belles" (Carmen, Frasquita, Mercedes) (00:52)
45. "Eh bien?" - "Eh bien, c'est plus complique que prevu!" (Carmen, Frasquita, Mercedes, Dancairo, Remendado) (00:28)
46. "Quant au douanier" (Carmen, Frasquita, Mercedes, Dancairo, Remendado, Bohemiens et Bohemiennes) (03:05)
47. "Je dis que rien ne m'epouvante" (Micaela) (05:27)
48. "Qui etes-vous, repondez!" (Don Jose, Escamillo) (00:07)
49. "Je suis Escamillo, Torero de Grenade!" (Escamillo, Don Jose) (00:59)
50. "Elle avait pour amant" (Escamillo, Don Jose) (00:37)
51. "Mais pour nous enlever nos filles de Boheme" (Don Jose, Escamillo) (00:48)
52. "Enfin ma colere" - "Quelle maladresse" (Don Jose, Escamillo) (01:18)
53. "Tout beau!" (Escamillo, Don Jose) (01:23)
54. "Hola! hola! Jose!" (Carmen, Escamillo, Don Jose, Dancairo) (02:32)
55. "Prends garde a toi Carmen" (Don Jose, Dancairo, Bohemiens et Bohemiennes, Remendado, Carmen, Micaela, Frasquita, Mercedes) (00:37)
56. "Moi! Je viens te chercher!" (Micaela) (01:06)
57. "Va-t'en" - "Tu me dis de la suivre!" (Carmen, Don Jose) (03:13)
58. "Toreador, en garde!" (Escamillo) (00:59)
Act 4:
59. Entr'acte (02:21)
60. "A deux cuartos!" (Marchands, Marchandes, Zuniga, Une marchande, Un bohemien) (02:07)
61. "Les voici! Voici la quadrille!" (Churs, Enfants) (03:46)
62. "Si tu m'aimes, Carmen" (Escamillo, Carmen) (01:23)
63. "Carmen, un bon conseil" (Frasquita, Carmen, Mercedes (01:58)
64. "C'est toi" - "C'est moi" (Carmen, Don Jose) (04:04)
65. "Tu m'aimes donc plus" (Don Jose, Carmen, Chorus) (05:55)
-Контейнер: FLAC (*.flac)
Тип рипа: tracks
Разрядность: 24bit / 44,1kHz
Количество каналов: 2.0-

Динамический диапазон - DR

foobar2000 1.3.2 / Замер динамического диапазона (DR) 1.1.1
Дата отчёта: 2015-08-29 10:12:18
--------------------------------------------------------------------------------
Анализ: Kozena, Kaufmann, Kuhmeier, Smoriginas / Bizet: Carmen (Édition StudioMasters)
--------------------------------------------------------------------------------
DR Пики RMS Продолжительность трека
--------------------------------------------------------------------------------
DR14 -0.55 дБ -19.86 дБ 3:20 01-Prelude
DR16 -1.61 дБ -25.50 дБ 2:01 02-Act 1: "Sur la place, chacun passe, chacun vient, chacun va" (Morales, Dragons)
DR16 -1.07 дБ -24.92 дБ 4:03 03-Act 1: "Regardez donc cette petite qui semble vouloir nous parler" (Morales, Micaela, Dragons)
DR19 -0.97 дБ -25.22 дБ 4:43 04-Act 1: "Avec la garde montante, nous arrivons, nous voila!" (Enfants)
DR15 -1.55 дБ -24.54 дБ 4:01 05-Act 1: "La cloche a sonne; nous, des ouvrieres" (Jeunes gens)
DR15 -0.78 дБ -24.61 дБ 1:09 06-Act 1: "Mais nous ne voyons pas la Carmencita!" "Quand je vous aimerai?" (Jeunes gens, Dragons, Cigarieres, Carmen)
DR16 -0.25 дБ -22.56 дБ 4:19 07-Act 1: "L'amour est un oiseau rebelle" (Carmen, Cigarieres, Jeunes gens, Dragons)
DR15 -0.76 дБ -23.59 дБ 1:59 08-Act 1: "Carmen! sur tes pas nous nous pressons tous!" (Jeunes gens, Cigarieres)
DR12 -8.80 дБ -34.49 дБ 0:17 09-Act 1: "Que est-ce-que ca veut dire, ces fa
DR15 -2.80 дБ -24.96 дБ 9:36 10-Act 1: "Parle-moi de ma mere" (Don Jose, Micaela)
DR15 -11.13 дБ -37.78 дБ 0:43 11-Act 1: "Attends un peu" (Don Jose, Micaela)
DR11 -0.26 дБ -16.61 дБ 3:00 12-Act 1: "Au secours!" (Zuniga, Cigarieres)
DR7 -2.77 дБ -25.19 дБ 0:13 13-Act 1: "Eh bien, Jose? Qu'est-ce qui c'est passe?" (Zuniga, Don Jose)
DR17 -4.71 дБ -28.89 дБ 3:06 14-Act 1: "Avez-vous quelque chose a repondre?" - "Tra la, la, la, coupe-moi" (Zuniga, Carmen)
DR15 -17.04 дБ -41.79 дБ 0:30 15-Act 1: "Laissez-moi echapper" (Carmen, Don Jose)
DR14 -1.37 дБ -26.30 дБ 4:32 16-Act 1: "Pres des remparts de Seville" (Carmen, Don Jose)
DR13 -0.29 дБ -20.79 дБ 2:23 17-Act 1: "Voice l'ordre, partez" (Zuniga, Carmen)
DR15 -8.99 дБ -31.50 дБ 1:41 18-Act 2: Entreacte
DR15 -0.18 дБ -21.35 дБ 4:34 19-Act 2: "Les tringles des sistres tintaient avec un eclat metallique" (Carmen, Frasquita, Mercedes)
DR12 -0.83 дБ -19.21 дБ 1:16 20-Act 2: "Vivat! vivat le Torero!" (Amis d'Escamillo, Zuniga, Carmen, Frasquita, Mercedes, Morales)
DR14 -0.25 дБ -19.66 дБ 5:02 21-Act 2: "Votre toast, je peux vouz le rendre"/ "Toreador, en garde!" (Escamillo, Carmen, Frasquita, Mercedes, Morales, Zuniga)
DR15 -18.19 дБ -38.66 дБ 0:42 22-Act 2: "Dis-moi ton nom" (Escamillo, Carmen)
DR13 -2.18 дБ -22.33 дБ 1:11 23-Act 2: "Toreador, en garde" (Amis d'Escamillo)
DR17 -10.53 дБ -33.76 дБ 0:18 24-Act 2: "Eh bien monsieur, quelles nouvelles" (Frasquita, Dancairo, Mercedes, Remendado)
DR15 -1.09 дБ -23.82 дБ 4:50 25-Act 2: "Nous avons en tete une affaire" (Dancairo, Frasquita, Mercedes, Remendado, Carmen)
DR15 -11.45 дБ -31.97 дБ 1:30 26-Act 2: "Partez sans moi, j'irai vous rejoindre demain" (Carmen, Frasquita, Mercedes, Remendado, Dancairo, Don Jose)
DR15 -13.17 дБ -36.72 дБ 0:36 27-Act 2: "Enfin, te voila!" (Carmen, Don Jose)
DR10 -12.88 дБ -33.00 дБ 0:34 28-Act 2: "Je vais danser en votre honneur" (Carmen)
DR15 -12.07 дБ -32.88 дБ 2:12 29-Act 2: "La-la-la-la" / "Attends un peu, Carmen" (Carmen, Don Jose)
DR14 -1.95 дБ -23.47 дБ 2:51 30-Act 2: "Au quartier! pour l'appel?" (Carmen, Don Jose)
DR15 -4.67 дБ -26.01 дБ 4:26 31-Act 2: "La fleur que tu m'avais jetee" (Don Jose)
DR16 -1.86 дБ -25.46 дБ 2:48 32-Act 2: "Non! tu ne m'aimes pas!" (Carmen, Don Jose)
DR12 -0.45 дБ -17.74 дБ 1:09 33-Act 2: "Non! Je ne veux plus t'ecouter!" (Don Jose, Carmen)
DR13 -1.72 дБ -22.36 дБ 1:22 34-Act 2: "Hola! Carmen! hola! hola!" (Zuniga, Don Jose, Carmen)
DR14 -3.19 дБ -26.33 дБ 1:13 35-Act 2: "Bel officier, l'amour vous joue en ce moment un assez vilain tour!" (Carmen, Remendado, Dancairo, Bohemiens, Zuniga)
DR10 -0.20 дБ -15.39 дБ 2:31 36-Act 2: "Plus tard!" / "La guerre, c'est la guerre!" (Zuniga, Dancairo, Remendado, Bohemiens, Carmen, Don Jose, Frasquita, Mercedes, Bohemiens)
DR13 -8.68 дБ -28.56 дБ 2:39 37-Act 3: Entr'acte
DR17 -1.39 дБ -27.00 дБ 2:40 38-Act 3: "Ecoute, ecoute, compagnon, ecoute!" (Bohemiens)
DR13 -0.68 дБ -19.68 дБ 1:39 39-Act 3: "Notre metier est bien" (Carmen, Don Jose, Frasquita, Mercedes, Dancairo, Remendado, Bohemiens et Bohemiennes)
DR15 -10.57 дБ -37.77 дБ 0:38 40-Act 3: "A quoi tu penses?" (Carmen, Don Jose)
DR14 -4.64 дБ -26.12 дБ 3:07 41-Act 3: "Melons! Coupons!" (Frasquita, Mercedes)
DR13 -6.77 дБ -27.77 дБ 1:02 42-Act 3: "Voyons que j'essaie a mon tour" (Carmen)
DR14 -3.40 дБ -26.79 дБ 2:09 43-Act 3: "En vain pour eviter" (Carmen)
DR13 -0.95 дБ -20.97 дБ 0:52 44-Act 3: "La mort" / "Parlez encor, parlez mes belles" (Carmen, Frasquita, Mercedes)
DR14 -11.35 дБ -31.75 дБ 0:28 45-Act 3: "Eh bien?" - "Eh bien, c'est plus complique que prevu!" (Carmen, Frasquita, Mercedes, Dancairo, Remendado)
DR13 -0.31 дБ -19.52 дБ 3:05 46-Act 3: "Quant au douanier" (Carmen, Frasquita, Mercedes, Dancairo, Remendado, Bohemiens et Bohemiennes)
DR15 -3.30 дБ -25.45 дБ 5:27 47-Act 3: "Je dis que rien ne m'epouvante" (Micaela)
DR14 -1.00 дБ -25.33 дБ 0:07 48-Act 3: "Qui etes-vous, repondez!" (Don Jose, Escamillo)
DR13 -5.01 дБ -23.95 дБ 0:59 49-Act 3: "Je suis Escamillo, Torero de Grenade!" (Escamillo, Don Jose)
DR11 -8.85 дБ -26.61 дБ 0:37 50-Act 3: "Elle avait pour amant" (Escamillo, Don Jose)
DR13 -0.78 дБ -21.75 дБ 0:48 51-Act 3: "Mais pour nous enlever nos filles de Boheme" (Don Jose, Escamillo)
DR14 -2.12 дБ -20.43 дБ 1:18 52-Act 3: "Enfin ma colere" - "Quelle maladresse" (Don Jose, Escamillo)
DR13 -1.78 дБ -19.31 дБ 1:23 53-Act 3: Tout beau!" (Escamillo, Don Jose)
DR16 -0.86 дБ -26.04 дБ 2:32 54-Act 3: "Hola! hola! Jose!" (Carmen, Escamillo, Don Jose, Dancairo)
DR11 -0.65 дБ -18.64 дБ 0:37 55-Act 3: "Prends garde a toi Carmen" (Don Jose, Dancairo, Bohemiens et Bohemiennes, Remendado, Carmen, Micaela, Frasquita, Mercedes)
DR11 -5.80 дБ -22.98 дБ 1:06 56-Act 3: "Moi! Je viens te chercher!" (Micaela)
DR13 -0.08 дБ -18.21 дБ 3:13 57-Act 3: "Va-t'en" - "Tu me dis de la suivre!" (Carmen, Don Jose)
DR3 -3.24 дБ -30.58 дБ 0:59 58-Act 3: "Toreador, en garde!" (Escamillo)
DR15 -0.97 дБ -22.74 дБ 2:21 59-Act 4: Entr'acte
DR13 -0.68 дБ -19.29 дБ 2:07 60-Act 4: "A deux cuartos!" (Marchands, Marchandes, Zuniga, Une marchande, Un bohemien)
DR11 -0.16 дБ -15.25 дБ 3:46 61-Act 4: "Les voici! Voici la quadrille!" (Churs, Enfants)
DR13 -4.02 дБ -24.80 дБ 1:23 62-Act 4: "Si tu m'aimes, Carmen" (Escamillo, Carmen)
DR15 -0.57 дБ -22.24 дБ 1:58 63-Act 4: "Carmen, un bon conseil" (Frasquita, Carmen, Mercedes
DR14 -3.55 дБ -25.51 дБ 4:04 64-Act 4: "C'est toi" - "C'est moi" (Carmen, Don Jose)
DR13 -0.74 дБ -19.87 дБ 5:55 65-Act 4: "Tu m'aimes donc plus" (Don Jose, Carmen, Chorus)
--------------------------------------------------------------------------------
Количество треков: 65
Реальные значения DR: DR14
Частота: 44100 Гц
Каналов: 2
Разрядность: 24
Битрейт: 1304 кбит/с
Кодек: FLAC
================================================================================
Торрент-файл перезалит 29.08.2015 в 09:20 по МСК времени, исправлены некорректные названия треков, просьба перекачать торрент-файл заново.
Извините за неудобства!
[teatrix.ru].t22076.torrent 
Торрент: Зарегистрирован [ 2016-03-20 12:45 ] · 5237BF0D15FDBE2647099D3EB5CF680A5D9A824E

Скачать .torrent

Скачать

20 KB

Статус: проверено
Скачан: 1 раз
Размер: 1.32 GB
terms.php



Быстрый ответ

Имя:

      
Для отправки сообщений необходимо включить JavaScript
Показать сообщения:    

Текущее время: 11-Дек 16:53

Часовой пояс: UTC + 3


Вы можете начинать темы
Вы можете отвечать на сообщения
Вы не можете редактировать свои сообщения
Вы не можете удалять свои сообщения
Вы не можете голосовать в опросах
Вы не можете прикреплять файлы к сообщениям
Вы можете скачивать файлы