(Oratorio) Franck - Les Beatitudes (Montague, Lewis, Cachemaille, Cheek - Gachinger Kantorei Stutgart / Radio-Sinfonieorchester Stuttgart, Rilling) - 2009, APE (image+.cue) lossless


Статистика раздачи [Обновить пиров]
Размер:  479 MB   |    Зарегистрирован:  8 месяцев 19 дней   |    Скачан:  0 раз

Полного источника не было: Никогда

 
   
 
 
 

[Цитировать]

César Franck - Les Beatitudes
Жанр: Oratorio
Страна-производитель диска: EU
Год издания диска: 2009
Издатель (лейбл): Brilliant
Номер по каталогу: 99955
Дата записи: 1990
Аудиокодек: APE
Тип рипа: image+.cue
Битрейт аудио: lossless
Продолжительность: 62'07+69'00
Источник: собственный рип
Наличие сканов в содержимом раздачи: да
Треклист:
Треклист:
CD1
1. Prologue
2. Beatitude I: Blessed are the poor in spirit, for theirs is the Kingdom of heaven
3. Beatitude II: Blessed are the meek, for they shall inherit the earth
4. Beatitude III: Blessed are those who mourn, for they shall be comforted
5. Beatitude IV: Blessed are those who hunger and thirst for righteousness, for they shall be satisfied
CD2
1. Beatitude V: Blessed are the mercyful, for they shall obtain mercy
2. Beatitude VI: Blessed are the pure in heart, for they shall see God
3. Beatitude VII: Blessed are the peacemakers, for they shall be called Sons of God
4. Beatitude VIII: Blessed are those who are persecuted for righteousness’ sake, for theirs is the king
Исполнители:
César Franck - Les Béatitudes (Die Seeligpreisungen)
Diana Montague, mezzo soprano
Keith Lewis, tenor
Gilles Cachemaille, bariton (Christus)
John Cheek, bass (Satan)
Cornelia Kallisch, alto
Ingeborg Danz, mezzo soprano
Scot Weir, tenor
Juan Vasle, bass
Reinhard Hagen, bass
Gächinger Kantorei Stuttgart
Radio-Sinfonieorchester Stuttgart, Helmuth Rilling

Лог создания рипа

CD1

Exact Audio Copy V1.0 beta 6 from 9. April 2015
EAC extraction logfile from 20. August 2015, 20:39
Franck / Les Béatitudes, Rilling CD1
Used drive : TS8XDVDSTRANSCEND Adapter: 1 ID: 1
Read mode : Secure
Utilize accurate stream : Yes
Defeat audio cache : Yes
Make use of C2 pointers : No
Read offset correction : 6
Overread into Lead-In and Lead-Out : No
Fill up missing offset samples with silence : Yes
Delete leading and trailing silent blocks : No
Null samples used in CRC calculations : Yes
Used interface : Native Win32 interface for Win NT & 2000
Used output format : Monkey's Audio Lossless Encoder
Selected bitrate : High Lossless Compression
Quality : High
Add ID3 tag : Yes
Command line compressor : C:\Program Files (x86)\Exact Audio Copy\MAC\MAC.exe
TOC of the extracted CD
Track | Start | Length | Start sector | End sector
---------------------------------------------------------
1 | 0:00.33 | 5:51.47 | 33 | 26404
2 | 5:52.05 | 13:52.15 | 26405 | 88819
3 | 19:44.20 | 10:57.13 | 88820 | 138107
4 | 30:41.33 | 18:26.32 | 138108 | 221089
5 | 49:07.65 | 12:02.35 | 221090 | 275274
Range status and errors
Selected range
Filename D:\EAC\Franck - Les Béatitudes, Rilling CD1.wav
Peak level 94.3 %
Extraction speed 1.9 X
Range quality 100.0 %
Test CRC A60331BC
Copy CRC A60331BC
Copy OK
No errors occurred
AccurateRip summary
Track 1 accurately ripped (confidence 6) [8C282E51] (AR v2)
Track 2 accurately ripped (confidence 5) [B4FADD23] (AR v2)
Track 3 accurately ripped (confidence 6) [BACBBB3C] (AR v2)
Track 4 accurately ripped (confidence 6) [3BF1D85C] (AR v2)
Track 5 accurately ripped (confidence 7) [B70CB282] (AR v2)
All tracks accurately ripped
End of status report
---- CUETools DB Plugin V2.1.6
[CTDB TOCID: h01a3NrB3ALpllOOlMw6c9WNeKs-] found
Submit result: unrecognized or virtual drive
Track | CTDB Status
1 | (1/1) Accurately ripped
2 | (1/1) Accurately ripped
3 | (1/1) Accurately ripped
4 | (1/1) Accurately ripped
5 | (1/1) Accurately ripped
==== Log checksum F5741419B3C8434257C5ECA8ACDEC9585AB6AA45FFB135649769F95E3B89B174 ====

CD2

Exact Audio Copy V1.0 beta 6 from 9. April 2015
EAC extraction logfile from 20. August 2015, 21:06
Franck / Les Béatitudes, Rilling CD2
Used drive : HL-DT-STDVDRAM GH22NS50 Adapter: 1 ID: 0
Read mode : Secure
Utilize accurate stream : Yes
Defeat audio cache : Yes
Make use of C2 pointers : No
Read offset correction : 667
Overread into Lead-In and Lead-Out : No
Fill up missing offset samples with silence : Yes
Delete leading and trailing silent blocks : No
Null samples used in CRC calculations : Yes
Used interface : Native Win32 interface for Win NT & 2000
Used output format : Monkey's Audio Lossless Encoder
Selected bitrate : High Lossless Compression
Quality : High
Add ID3 tag : Yes
Command line compressor : C:\Program Files (x86)\Exact Audio Copy\MAC\MAC.exe
TOC of the extracted CD
Track | Start | Length | Start sector | End sector
---------------------------------------------------------
1 | 0:00.33 | 15:36.22 | 33 | 70254
2 | 15:36.55 | 14:47.08 | 70255 | 136787
3 | 30:23.63 | 16:07.27 | 136788 | 209339
4 | 46:31.15 | 21:32.00 | 209340 | 306239
Range status and errors
Selected range
Filename D:\EAC\Franck - Les Béatitudes, Rilling CD2.wav
Peak level 100.0 %
Extraction speed 1.8 X
Range quality 99.9 %
Test CRC 186BCEAB
Copy CRC 186BCEAB
Copy OK
No errors occurred
AccurateRip summary
Track 1 accurately ripped (confidence 7) [BF7048EF] (AR v2)
Track 2 accurately ripped (confidence 7) [1EACDC3A] (AR v2)
Track 3 accurately ripped (confidence 7) [6138A1C9] (AR v2)
Track 4 accurately ripped (confidence 7) [EFBC6A6F] (AR v2)
All tracks accurately ripped
End of status report
---- CUETools DB Plugin V2.1.6
[CTDB TOCID: FTInrJGCqMPXL9GBal4sWsX80Ew-] found
Submit result: FTInrJGCqMPXL9GBal4sWsX80Ew- has been confirmed
Track | CTDB Status
1 | (1/1) Accurately ripped
2 | (1/1) Accurately ripped
3 | (1/1) Accurately ripped
4 | (1/1) Accurately ripped
==== Log checksum 7B57CC33F6F5727A996F48F667CAD35C492EB8625E4D0236424DAA09E4EE2D19 ====

Содержание индексной карты (.CUE)

CD1

REM GENRE Oratorio
REM DATE 2003
REM DISCID 460E5605
REM COMMENT "ExactAudioCopy v1.0b6"
PERFORMER "Franck"
TITLE "Les Béatitudes, Rilling CD1"
FILE "Franck - Les Béatitudes, Rilling CD1.ape" WAVE
TRACK 01 AUDIO
TITLE "Prologue"
PERFORMER "Montague, Lewis, Cachemaille - Gächinger Kantorei Stutgart / Radio-Sinfonieor..."
INDEX 00 00:00:00
INDEX 01 00:00:33
TRACK 02 AUDIO
TITLE "Béatitude I: Blessed are the poor, for..."
PERFORMER "Montague, Lewis, Cachemaille - Gächinger Kantorei Stutgart / Radio-Sinfonieor..."
INDEX 00 05:47:45
INDEX 01 05:52:05
TRACK 03 AUDIO
TITLE "Béatitude II: Blessed are the meek, for..."
PERFORMER "Montague, Lewis, Cachemaille - Gächinger Kantorei Stutgart / Radio-Sinfonieor..."
INDEX 00 19:34:69
INDEX 01 19:44:20
TRACK 04 AUDIO
TITLE "Béatitude III: Blessed are those who mourn, for..."
PERFORMER "Montague, Lewis, Cachemaille - Gächinger Kantorei Stutgart / Radio-Sinfonieor..."
INDEX 00 30:31:38
INDEX 01 30:41:33
TRACK 05 AUDIO
TITLE "Béatitude IV: Blessed are those who hunger and thirst for Righteousness, for...."
PERFORMER "Montague, Lewis, Cachemaille - Gächinger Kantorei Stutgart / Radio-Sinfonieor..."
INDEX 00 48:56:49
INDEX 01 49:07:65

CD2

REM GENRE Oratorio
REM DATE 2003
REM DISCID 3B0FF304
REM COMMENT "ExactAudioCopy v1.0b6"
PERFORMER "Franck"
TITLE "Les Béatitudes, Rilling CD2"
FILE "Franck - Les Béatitudes, Rilling CD2.ape" WAVE
TRACK 01 AUDIO
TITLE "Béatitude V: Blessed are the mercyful, for..."
PERFORMER "Montague, Lewis, Cachemaille - Gächinger Kantorei Stutgart / Radio-Sinfonieor..."
INDEX 00 00:00:00
INDEX 01 00:00:33
TRACK 02 AUDIO
TITLE "Béatitude VI: Blessed are the pure in the heart, for..."
PERFORMER "Montague, Lewis, Cachemaille - Gächinger Kantorei Stutgart / Radio-Sinfonieor..."
INDEX 00 15:27:53
INDEX 01 15:36:55
TRACK 03 AUDIO
TITLE "Béatitude VII: Blessed are the peacemakers, for..."
PERFORMER "Montague, Lewis, Cachemaille - Gächinger Kantorei Stutgart / Radio-Sinfonieor..."
INDEX 00 30:17:33
INDEX 01 30:23:63
TRACK 04 AUDIO
TITLE "Béatitude VIII: Blessed are those who are percecuted for righteousness' sake,..."
PERFORMER "Montague, Lewis, Cachemaille - Gächinger Kantorei Stutgart / Radio-Sinfonieor..."
INDEX 00 46:22:29
INDEX 01 46:31:15
Доп. информация:
Les Béatitudes will probably be considered as Franck’s masterpiece.
To a man of so profoundly religious as César Franck the subject of Christ’s Sermon on the Mount must have appealed with particular force.
The profound humanity, the depth of feeling and the transcendental beauty of the music make it one of the greatest masterpieces of religious music.
Excellent performances by a strong cast of soloists, the superb Radio Symphony Orchestra of Stuttgart and choral specialist Helmuth Rilling.
Complete french libretto in the booklet included.
[teatrix.ru].t22080.torrent 
Торрент: Зарегистрирован [ 2016-03-20 12:45 ] · 3BF29DB9CAAB2848730CC97817E02F4B1CC18F81

Скачать .torrent

Скачать

20 KB

Статус: проверено
Скачан: 0 раз
Размер: 479 MB
terms.php



Быстрый ответ

Имя:

      
Для отправки сообщений необходимо включить JavaScript
Показать сообщения:    

Текущее время: 08-Дек 21:13

Часовой пояс: UTC + 3


Вы можете начинать темы
Вы можете отвечать на сообщения
Вы не можете редактировать свои сообщения
Вы не можете удалять свои сообщения
Вы не можете голосовать в опросах
Вы не можете прикреплять файлы к сообщениям
Вы можете скачивать файлы