(Opera) Giuseppe Verdi - Otello / Джузеппе Верди - Отелло (Gustav Kuhn; Renato Bruson, Corneliu Murgu, Maria Guleghina/Мария Гулегина, Maurizio Saltarin, Michele Pertusi), 1991 - live from Suntory Hall, Tokyo, FLAC (tracks+.cue), lossless


 

[Цитировать]

Giuseppe Verdi - Otello / Джузеппе Верди - Отелло (Gustav Kuhn; Renato Bruson, Corneliu Murgu, Maria Guleghina, Maurizio Saltarin, Michele Pertusi)
Жанр: Opera
Страна-производитель диска: Австрия
Год издания диска: 1991
Издатель (лейбл): Koch Schwann
Дата записи: 1991
Аудиокодек: FLAC
Тип рипа: tracks+.cue
Битрейт аудио: lossless
Продолжительность: 133:14
Источник: релизер (EL HUMILDE CAMPESINO)
Исполнители:
Otello - Corneliu Murgu,
Iago - Renato Bruson,
Desdemona - Maria Guleghina,
Cassio - Maurizio Saltarin,
Rodrigo - Hiroyuki Yoshida,
Lodovico - Michele Pertusi,
Montano - Giovanni De Angelis,
Emilia - Gisella Pasino.
Conductor - Gustav Kuhn,
Tokyo Philharmonic Orchestra,
Fujiwara Opera Chorus.
Recorded live at Suntory Hall, Tokyo, Japan, 1 & 4 May, 1991.

Лог создания рипаЛог создания рипа CD 1

Exact Audio Copy V1.0 beta 3 from 29. August 2011
EAC extraction logfile from 21. August 2015, 20:31
Verdi, Giuseppe / Otello, Gustav Kuhn
Used drive : HL-DT-STDVDRAM GH24NSC0 Adapter: 3 ID: 0
Read mode : Secure
Utilize accurate stream : Yes
Defeat audio cache : Yes
Make use of C2 pointers : No
Read offset correction : 6
Overread into Lead-In and Lead-Out : No
Fill up missing offset samples with silence : Yes
Delete leading and trailing silent blocks : No
Null samples used in CRC calculations : Yes
Used interface : Native Win32 interface for Win NT & 2000
Gap handling : Appended to previous track
Used output format : User Defined Encoder
Selected bitrate : 768 kBit/s
Quality : High
Add ID3 tag : No
Command line compressor : C:\Program Files (x86)\Exact Audio Copy\FLAC\FLAC.EXE
Additional command line options : -8 -V -T "ARTIST=%artist%" -T "TITLE=%title%" -T "ALBUM=%albumtitle%" -T "DATE=%year%" -T "TRACKNUMBER=%tracknr%" -T "GENRE=%genre%" -T "PERFORMER=%albuminterpret%" -T "COMPOSER=%composer%" %haslyrics%--tag-from-file=LYRICS="%lyricsfile%"%haslyrics% -T "ALBUMARTIST=%albumartist%" -T "DISCNUMBER=%cdnumber%" -T "TOTALDISCS=%totalcds%" -T "TOTALTRACKS=%numtracks%" -T "COMMENT=%comment%" %source% -o %dest%
TOC of the extracted CD
Track | Start | Length | Start sector | End sector
---------------------------------------------------------
1 | 0:00.00 | 4:05.55 | 0 | 18429
2 | 4:05.55 | 4:34.02 | 18430 | 38981
3 | 8:39.57 | 4:09.68 | 38982 | 57724
4 | 12:49.50 | 4:51.42 | 57725 | 79591
5 | 17:41.17 | 2:58.70 | 79592 | 93011
6 | 20:40.12 | 9:57.58 | 93012 | 137844
7 | 30:37.70 | 2:25.72 | 137845 | 148791
8 | 33:03.67 | 10:51.18 | 148792 | 197634
9 | 43:55.10 | 7:06.10 | 197635 | 229594
10 | 51:01.20 | 3:24.27 | 229595 | 244921
11 | 54:25.47 | 4:31.00 | 244922 | 265246
12 | 58:56.47 | 4:29.50 | 265247 | 285471
13 | 63:26.22 | 2:17.18 | 285472 | 295764
Track 1
Filename f:\Users\Guillermo\Desktop\EAC convertidos\01 Akt 1 - Una vela.wav
Pre-gap length 0:00:02.00
Peak level 53.8 %
Extraction speed 1.6 X
Track quality 100.0 %
Test CRC C2D6CFB7
Copy CRC C2D6CFB7
Copy OK
Track 2
Filename f:\Users\Guillermo\Desktop\EAC convertidos\02 Akt 1 - Ensultate.wav
Peak level 50.9 %
Extraction speed 1.8 X
Track quality 100.0 %
Test CRC 58D00D35
Copy CRC 58D00D35
Copy OK
Track 3
Filename f:\Users\Guillermo\Desktop\EAC convertidos\03 Akt 1 - Fuoco di gioia.wav
Peak level 54.6 %
Extraction speed 1.9 X
Track quality 100.0 %
Test CRC AC4AA8F1
Copy CRC AC4AA8F1
Copy OK
Track 4
Filename f:\Users\Guillermo\Desktop\EAC convertidos\04 Akt 1 - Inaffia l'ugola.wav
Peak level 61.6 %
Extraction speed 1.9 X
Track quality 99.9 %
Test CRC 9D0BA7AE
Copy CRC 9D0BA7AE
Copy OK
Track 5
Filename f:\Users\Guillermo\Desktop\EAC convertidos\05 Akt 1 - Abasso le spade.wav
Peak level 36.8 %
Extraction speed 2.0 X
Track quality 100.0 %
Test CRC 51EE3177
Copy CRC 51EE3177
Copy OK
Track 6
Filename f:\Users\Guillermo\Desktop\EAC convertidos\06 Akt 1 - Gia nella notte densa.wav
Peak level 31.5 %
Extraction speed 2.7 X
Track quality 100.0 %
Test CRC 1E5CE85A
Copy CRC 1E5CE85A
Copy OK
Track 7
Filename f:\Users\Guillermo\Desktop\EAC convertidos\07 Akt 2 - Non ti crucciar.wav
Pre-gap length 0:00:04.40
Peak level 20.7 %
Extraction speed 1.8 X
Track quality 99.8 %
Test CRC 9256AF62
Copy CRC 9256AF62
Copy OK
Track 8
Filename f:\Users\Guillermo\Desktop\EAC convertidos\08 Akt 2 - Vanne.wav
Peak level 66.5 %
Extraction speed 3.1 X
Track quality 100.0 %
Test CRC ABE637E2
Copy CRC ABE637E2
Copy OK
Track 9
Filename f:\Users\Guillermo\Desktop\EAC convertidos\09 Akt 2 - Dove guardi.wav
Peak level 54.6 %
Extraction speed 3.2 X
Track quality 100.0 %
Test CRC 7E847D8A
Copy CRC 7E847D8A
Copy OK
Track 10
Filename f:\Users\Guillermo\Desktop\EAC convertidos\10 Akt 2 - Dammi la dolce.wav
Peak level 30.1 %
Extraction speed 2.9 X
Track quality 100.0 %
Test CRC 994E4801
Copy CRC 994E4801
Copy OK
Track 11
Filename f:\Users\Guillermo\Desktop\EAC convertidos\11 Akt 2 - Tu! Indientro.wav
Peak level 43.5 %
Extraction speed 3.2 X
Track quality 100.0 %
Test CRC 9A5B40A9
Copy CRC 9A5B40A9
Copy OK
Track 12
Filename f:\Users\Guillermo\Desktop\EAC convertidos\12 Akt 2 - Era la notte.wav
Peak level 53.5 %
Extraction speed 3.3 X
Track quality 100.0 %
Test CRC C8E441EE
Copy CRC C8E441EE
Copy OK
Track 13
Filename f:\Users\Guillermo\Desktop\EAC convertidos\13 Akt 2 - Si, pel ciel.wav
Peak level 79.9 %
Extraction speed 2.9 X
Track quality 100.0 %
Test CRC 8D523949
Copy CRC 8D523949
Copy OK
No errors occurred
End of status report
==== Log checksum 2554D2DC147C38E4D025DE074D6B1890552B798F1737FF620230936698B61DAD ====

Лог создания рипа CD 2

Exact Audio Copy V1.0 beta 3 from 29. August 2011
EAC extraction logfile from 22. August 2015, 6:32
Verdi, Giuseppe / Otello, Gustav Kuhn
Used drive : HL-DT-STDVDRAM GH24NSC0 Adapter: 3 ID: 0
Read mode : Secure
Utilize accurate stream : Yes
Defeat audio cache : Yes
Make use of C2 pointers : No
Read offset correction : 6
Overread into Lead-In and Lead-Out : No
Fill up missing offset samples with silence : Yes
Delete leading and trailing silent blocks : No
Null samples used in CRC calculations : Yes
Used interface : Native Win32 interface for Win NT & 2000
Gap handling : Appended to previous track
Used output format : User Defined Encoder
Selected bitrate : 768 kBit/s
Quality : High
Add ID3 tag : No
Command line compressor : C:\Program Files (x86)\Exact Audio Copy\FLAC\FLAC.EXE
Additional command line options : -8 -V -T "ARTIST=%artist%" -T "TITLE=%title%" -T "ALBUM=%albumtitle%" -T "DATE=%year%" -T "TRACKNUMBER=%tracknr%" -T "GENRE=%genre%" -T "PERFORMER=%albuminterpret%" -T "COMPOSER=%composer%" %haslyrics%--tag-from-file=LYRICS="%lyricsfile%"%haslyrics% -T "ALBUMARTIST=%albumartist%" -T "DISCNUMBER=%cdnumber%" -T "TOTALDISCS=%totalcds%" -T "TOTALTRACKS=%numtracks%" -T "COMMENT=%comment%" %source% -o %dest%
TOC of the extracted CD
Track | Start | Length | Start sector | End sector
---------------------------------------------------------
1 | 0:00.00 | 12:55.22 | 0 | 58146
2 | 12:55.22 | 4:08.53 | 58147 | 76799
3 | 17:04.00 | 4:44.55 | 76800 | 98154
4 | 21:48.55 | 2:55.55 | 98155 | 111334
5 | 24:44.35 | 2:14.42 | 111335 | 121426
6 | 26:59.02 | 1:40.33 | 121427 | 128959
7 | 28:39.35 | 9:14.62 | 128960 | 170571
8 | 37:54.22 | 11:00.70 | 170572 | 220141
9 | 48:55.17 | 4:20.08 | 220142 | 239649
10 | 53:15.25 | 9:26.47 | 239650 | 282146
11 | 62:41.72 | 4:51.68 | 282147 | 304039
Track 1
Filename f:\Users\Guillermo\Desktop\EAC convertidos\01 Akt 3 - La vedetta del porto.wav
Pre-gap length 0:00:02.00
Peak level 46.7 %
Extraction speed 2.0 X
Track quality 99.9 %
Test CRC B33D4688
Copy CRC B33D4688
Copy OK
Track 2
Filename f:\Users\Guillermo\Desktop\EAC convertidos\02 Akt 3 - Dio! mio potevi scagliar.wav
Peak level 44.7 %
Extraction speed 2.2 X
Track quality 100.0 %
Test CRC CBA9870D
Copy CRC CBA9870D
Copy OK
Track 3
Filename f:\Users\Guillermo\Desktop\EAC convertidos\03 Akt 3 - Vieni.wav
Peak level 38.5 %
Extraction speed 2.4 X
Track quality 100.0 %
Test CRC A051CEEA
Copy CRC A051CEEA
Copy OK
Track 4
Filename f:\Users\Guillermo\Desktop\EAC convertidos\04 Akt 3 - Bada.wav
Peak level 56.6 %
Extraction speed 2.3 X
Track quality 100.0 %
Test CRC CFDC9DD5
Copy CRC CFDC9DD5
Copy OK
Track 5
Filename f:\Users\Guillermo\Desktop\EAC convertidos\05 Akt 3 - Madonna.wav
Peak level 63.7 %
Extraction speed 2.1 X
Track quality 100.0 %
Test CRC 3AF04BA7
Copy CRC 3AF04BA7
Copy OK
Track 6
Filename f:\Users\Guillermo\Desktop\EAC convertidos\06 Akt 3 - Messeri.wav
Peak level 43.9 %
Extraction speed 2.0 X
Track quality 100.0 %
Test CRC F5A83FA6
Copy CRC F5A83FA6
Copy OK
Track 7
Filename f:\Users\Guillermo\Desktop\EAC convertidos\07 Akt 3 - A terra.wav
Peak level 74.7 %
Extraction speed 2.8 X
Track quality 99.9 %
Test CRC 88A1DC8D
Copy CRC 88A1DC8D
Copy OK
Track 8
Filename f:\Users\Guillermo\Desktop\EAC convertidos\08 Akt 4 - Era piu calmo.wav
Pre-gap length 0:00:08.96
Peak level 41.7 %
Extraction speed 3.1 X
Track quality 99.9 %
Test CRC A3A2DDA4
Copy CRC A3A2DDA4
Copy OK
Track 9
Filename f:\Users\Guillermo\Desktop\EAC convertidos\09 Akt 4 - Ave Maria.wav
Peak level 23.6 %
Extraction speed 3.2 X
Track quality 100.0 %
Test CRC 9117B29C
Copy CRC 9117B29C
Copy OK
Track 10
Filename f:\Users\Guillermo\Desktop\EAC convertidos\10 Akt 4 - Chi e la.wav
Peak level 86.8 %
Extraction speed 3.7 X
Track quality 100.0 %
Test CRC 3B982CF9
Copy CRC 3B982CF9
Copy OK
Track 11
Filename f:\Users\Guillermo\Desktop\EAC convertidos\11 Akt 4 - Niun mi tema.wav
Peak level 61.0 %
Extraction speed 3.0 X
Track quality 99.9 %
Test CRC 8F151E09
Copy CRC 8F151E09
Copy OK
No errors occurred
End of status report
==== Log checksum 0AA41D566D9BC9BECAB187E30E941E2D615F470884FE69AB6AD2D1F66504E3C5 ====

Содержание индексной карты (.CUE)Содержание индексной карты (.CUE) CD 1

REM GENRE Opera
REM DATE 1991
REM DISCID BB0F670D
REM COMMENT "ExactAudioCopy v1.0b3"
FILE "01 Akt 1 - Una vela.wav" WAVE
TRACK 01 AUDIO
INDEX 01 00:00:00
FILE "02 Akt 1 - Ensultate.wav" WAVE
TRACK 02 AUDIO
INDEX 01 00:00:00
FILE "03 Akt 1 - Fuoco di gioia.wav" WAVE
TRACK 03 AUDIO
INDEX 01 00:00:00
FILE "04 Akt 1 - Inaffia l'ugola.wav" WAVE
TRACK 04 AUDIO
INDEX 01 00:00:00
FILE "05 Akt 1 - Abasso le spade.wav" WAVE
TRACK 05 AUDIO
INDEX 01 00:00:00
FILE "06 Akt 1 - Gia nella notte densa.wav" WAVE
TRACK 06 AUDIO
INDEX 01 00:00:00
TRACK 07 AUDIO
INDEX 00 09:53:28
FILE "07 Akt 2 - Non ti crucciar.wav" WAVE
INDEX 01 00:00:00
FILE "08 Akt 2 - Vanne.wav" WAVE
TRACK 08 AUDIO
INDEX 01 00:00:00
FILE "09 Akt 2 - Dove guardi.wav" WAVE
TRACK 09 AUDIO
INDEX 01 00:00:00
FILE "10 Akt 2 - Dammi la dolce.wav" WAVE
TRACK 10 AUDIO
INDEX 01 00:00:00
FILE "11 Akt 2 - Tu! Indientro.wav" WAVE
TRACK 11 AUDIO
INDEX 01 00:00:00
FILE "12 Akt 2 - Era la notte.wav" WAVE
TRACK 12 AUDIO
INDEX 01 00:00:00
FILE "13 Akt 2 - Si, pel ciel.wav" WAVE
TRACK 13 AUDIO
INDEX 01 00:00:00

Содержание индексной карты (.CUE) CD 2

REM GENRE Opera
REM DATE 1991
REM DISCID 9A0FD50B
REM COMMENT "ExactAudioCopy v1.0b3"
FILE "01 Akt 3 - La vedetta del porto.wav" WAVE
TRACK 01 AUDIO
INDEX 01 00:00:00
FILE "02 Akt 3 - Dio! mio potevi scagliar.wav" WAVE
TRACK 02 AUDIO
INDEX 01 00:00:00
FILE "03 Akt 3 - Vieni.wav" WAVE
TRACK 03 AUDIO
INDEX 01 00:00:00
FILE "04 Akt 3 - Bada.wav" WAVE
TRACK 04 AUDIO
INDEX 01 00:00:00
FILE "05 Akt 3 - Madonna.wav" WAVE
TRACK 05 AUDIO
INDEX 01 00:00:00
FILE "06 Akt 3 - Messeri.wav" WAVE
TRACK 06 AUDIO
INDEX 01 00:00:00
FILE "07 Akt 3 - A terra.wav" WAVE
TRACK 07 AUDIO
INDEX 01 00:00:00
TRACK 08 AUDIO
INDEX 00 09:05:65
FILE "08 Akt 4 - Era piu calmo.wav" WAVE
INDEX 01 00:00:00
FILE "09 Akt 4 - Ave Maria.wav" WAVE
TRACK 09 AUDIO
INDEX 01 00:00:00
FILE "10 Akt 4 - Chi e la.wav" WAVE
TRACK 10 AUDIO
INDEX 01 00:00:00
FILE "11 Akt 4 - Niun mi tema.wav" WAVE
TRACK 11 AUDIO
INDEX 01 00:00:00

Треклист

Disc 1:
Act I:
1. "Una vela! Una vela!"
2. "Esultate! L'orgoglio musulmano"
3. "Fuoco di gioia!"
4. "Inaffia l'ugola!"
5. "Abbasso le spade!"
6. "Già nella notte densa"
Act II:
7. "Non ti crucciar"
8. "Vanne! la tua meta già vedo... Credo in un Dio crudel... Ciò m'accora..."
9. "Dove guardi splendono raggi... D'un uom che geme sotto il tuo disdegno"
10. "Desdemona rea!"
11. "Tu?! Indietro! fuggi!! Ora e per sempre addio"
12. "Era la notte, Cassio dormia"
13. "Sì, pel ciel marmoreo giuro!"
Disc 2:
Act III:
1. "La vendetta del porto ha segnalato la veneta galea... Dio ti giocondi, o sposo"
2. "Dio! mi potevi scagliar tutti i mali"
3. "Vieni; l'aula è deserta"
4. Bada! "Quest'è il segnale"
5. "Madonna!"
6. "Messeri!... Il Doge..."
7. "A terra!... sì...nel livido fango"
Act IV:
8. "Era più calmo? Mia madre aveva una povera ancella"
9. "Ave Maria, piena di grazia"
10. "Chi è là? Otello?... Aprite!"
11. "Nium mi tema"



Показать сообщения:    

Текущее время: 09-Дек 08:51

Часовой пояс: UTC + 3


Вы не можете начинать темы
Вы не можете отвечать на сообщения
Вы не можете редактировать свои сообщения
Вы не можете удалять свои сообщения
Вы не можете голосовать в опросах
Вы не можете прикреплять файлы к сообщениям
Вы не можете скачивать файлы