(Classical) Olivier Messiaen · Turangalila-Symphonie (Jean-Yves Thibaudet, Takashi Harada, Riccardo Chailly, Royal Concertgebouw Orchestra) · 1993, FLAC (tracks+.cue) lossless


 

[Цитировать]

Olivier Messiaen
Turangalîla-Symphonie

Жанр: classical
Страна-производитель диска: Германия
Год издания диска: 1993
Издатель: Decca
Номер по каталогу: 436 626-2
Дата записи: март 1992
Аудиокодек: FLAC
Тип рипа: tracks+.cue
Битрейт аудио: lossless
Продолжительность: 01:16:36
Источник: скачано с what.cd
Буклет в содержимом раздачи представлен пятью страницами
Исполнители: Royal Concertgebouw Orchestra
Riccardo Chailly (conductor), Jean-Yves Thibaudet (piano), Takashi Harado (ondes martenot)
Треклист:
01. Introduction (6:22)
02. Chant d’amour I (8:02)
03. Turangalîla I (5:59)
04. Chant d’amour II (11:13)
05. Joie du sang des etoiles (6:34)
06. Jardin du sommeil d’amour (11:46)
07. Turangalîla II (3:48)
08. Développement de l’amour (10:46)
09. Turangalîla III (5:19)
10. Final (6:47)

Лог создания рипа

X Lossless Decoder version 20120226 (139.1)
XLD extraction logfile from 2012-03-13 12:49:36 +0100
Jean-Yves Thibaudet, Takashi Harada; Riccardo Chailly: Royal Concertgebouw Orchestra / Olivier Messiaen: Turangalîla-Symphonie
Used drive : MATSHITA DVD-R UJ-857 (revision HAEA)
Ripper mode : XLD Secure Ripper
Disable audio cache : OK for the drive with a cache less than 1375KiB
Make use of C2 pointers : NO
Read offset correction : 102
Max retry count : 20
Gap status : Analyzed, Appended (except HTOA)
TOC of the extracted CD
Track | Start | Length | Start sector | End sector
---------------------------------------------------------
1 | 00:00:32 | 06:22:25 | 32 | 28706
2 | 06:22:57 | 08:01:50 | 28707 | 64831
3 | 14:24:32 | 05:58:50 | 64832 | 91731
4 | 20:23:07 | 11:13:25 | 91732 | 142231
5 | 31:36:32 | 06:33:38 | 142232 | 171744
6 | 38:09:70 | 11:46:37 | 171745 | 224731
7 | 49:56:32 | 03:47:50 | 224732 | 241806
8 | 53:44:07 | 10:46:13 | 241807 | 290269
9 | 64:30:20 | 05:19:25 | 290270 | 314219
10 | 69:49:45 | 06:46:50 | 314220 | 344719
List of alternate offset correction values
# | Absolute | Relative | Confidence
------------------------------------------
1 | -1226 | -1328 | 15
AccurateRip Summary
Track 01 : OK (AR2, confidence 3)
Track 02 : OK (AR2, confidence 3)
Track 03 : OK (AR2, confidence 3)
Track 04 : OK (AR2, confidence 3)
Track 05 : OK (AR2, confidence 3)
Track 06 : OK (AR2, confidence 3)
Track 07 : OK (AR2, confidence 3)
Track 08 : OK (AR2, confidence 3)
Track 09 : OK (AR2, confidence 3)
Track 10 : OK (AR2, confidence 3)
->All tracks accurately ripped.
All Tracks
Album gain : -1.56 dB
Peak : 1.000000
Statistics
Read error : 0
Jitter error (maybe fixed) : 0
Retry sector count : 0
Damaged sector count : 0
Track 01
Filename : /Users/admin/Music/Jean-Yves Thibaudet, Takashi Harada; Riccardo Chailly: Royal Concertgebouw Orchestra - Olivier Messiaen: Turangalîla-Symphonie (1993) [FLAC]/01 Messiaen: Turangalîla-Symphonie - Introduction.flac
Pre-gap length : 00:02:32
Track gain : -1.52 dB
Peak : 0.986938
CRC32 hash (test run) : 00703BA0
CRC32 hash : 00703BA0
CRC32 hash (skip zero) : C198874B
AccurateRip signature : BFB1E774
->Accurately ripped! (AR2, confidence 3)
Statistics
Read error : 0
Jitter error (maybe fixed) : 0
Retry sector count : 0
Damaged sector count : 0
Track 02
Filename : /Users/admin/Music/Jean-Yves Thibaudet, Takashi Harada; Riccardo Chailly: Royal Concertgebouw Orchestra - Olivier Messiaen: Turangalîla-Symphonie (1993) [FLAC]/02 Messiaen: Turangalîla-Symphonie - Chant D' Amour #1.flac
Pre-gap length : 00:02:37
Track gain : -1.53 dB
Peak : 0.989777
CRC32 hash (test run) : D89785D6
CRC32 hash : D89785D6
CRC32 hash (skip zero) : BA224CCC
AccurateRip signature : BBAC1025
->Accurately ripped! (AR2, confidence 3)
Statistics
Read error : 0
Jitter error (maybe fixed) : 0
Retry sector count : 0
Damaged sector count : 0
Track 03
Filename : /Users/admin/Music/Jean-Yves Thibaudet, Takashi Harada; Riccardo Chailly: Royal Concertgebouw Orchestra - Olivier Messiaen: Turangalîla-Symphonie (1993) [FLAC]/03 Messiaen: Turangalîla-Symphonie - Turangalîla #1.flac
Pre-gap length : 00:03:00
Track gain : -0.42 dB
Peak : 0.984741
CRC32 hash (test run) : 5160CD92
CRC32 hash : 5160CD92
CRC32 hash (skip zero) : EF08FAC1
AccurateRip signature : BCAF3658
->Accurately ripped! (AR2, confidence 3)
Statistics
Read error : 0
Jitter error (maybe fixed) : 0
Retry sector count : 0
Damaged sector count : 0
Track 04
Filename : /Users/admin/Music/Jean-Yves Thibaudet, Takashi Harada; Riccardo Chailly: Royal Concertgebouw Orchestra - Olivier Messiaen: Turangalîla-Symphonie (1993) [FLAC]/04 Messiaen: Turangalîla-Symphonie - Chant D' Amour #2.flac
Pre-gap length : 00:02:50
Track gain : 0.12 dB
Peak : 0.942932
CRC32 hash (test run) : AE5729D1
CRC32 hash : AE5729D1
CRC32 hash (skip zero) : D15693D2
AccurateRip signature : 48309548
->Accurately ripped! (AR2, confidence 3)
Statistics
Read error : 0
Jitter error (maybe fixed) : 0
Retry sector count : 0
Damaged sector count : 0
Track 05
Filename : /Users/admin/Music/Jean-Yves Thibaudet, Takashi Harada; Riccardo Chailly: Royal Concertgebouw Orchestra - Olivier Messiaen: Turangalîla-Symphonie (1993) [FLAC]/05 Messiaen: Turangalîla-Symphonie - Joie Du Sang Des Etoiles.flac
Pre-gap length : 00:02:25
Track gain : -2.70 dB
Peak : 0.996307
CRC32 hash (test run) : C76876BB
CRC32 hash : C76876BB
CRC32 hash (skip zero) : 818145E3
AccurateRip signature : 634A6861
->Accurately ripped! (AR2, confidence 3)
Statistics
Read error : 0
Jitter error (maybe fixed) : 0
Retry sector count : 0
Damaged sector count : 0
Track 06
Filename : /Users/admin/Music/Jean-Yves Thibaudet, Takashi Harada; Riccardo Chailly: Royal Concertgebouw Orchestra - Olivier Messiaen: Turangalîla-Symphonie (1993) [FLAC]/06 Messiaen: Turangalîla-Symphonie - Jardin Du Sommeil.flac
Pre-gap length : 00:15:00
Track gain : 9.92 dB
Peak : 0.200836
CRC32 hash (test run) : 89B41DEE
CRC32 hash : 89B41DEE
CRC32 hash (skip zero) : CBF9091A
AccurateRip signature : 9D73C7E6
->Accurately ripped! (AR2, confidence 3)
Statistics
Read error : 0
Jitter error (maybe fixed) : 0
Retry sector count : 0
Damaged sector count : 0
Track 07
Filename : /Users/admin/Music/Jean-Yves Thibaudet, Takashi Harada; Riccardo Chailly: Royal Concertgebouw Orchestra - Olivier Messiaen: Turangalîla-Symphonie (1993) [FLAC]/07 Messiaen: Turangalîla-Symphonie - Turangalîla #2.flac
Pre-gap length : 00:06:12
Track gain : -0.55 dB
Peak : 0.984436
CRC32 hash (test run) : 98C872A6
CRC32 hash : 98C872A6
CRC32 hash (skip zero) : ED5CE65F
AccurateRip signature : 42C230E4
->Accurately ripped! (AR2, confidence 3)
Statistics
Read error : 0
Jitter error (maybe fixed) : 0
Retry sector count : 0
Damaged sector count : 0
Track 08
Filename : /Users/admin/Music/Jean-Yves Thibaudet, Takashi Harada; Riccardo Chailly: Royal Concertgebouw Orchestra - Olivier Messiaen: Turangalîla-Symphonie (1993) [FLAC]/08 Messiaen: Turangalîla-Symphonie - Developpement De L'Amour.flac
Pre-gap length : 00:03:00
Track gain : -2.80 dB
Peak : 0.975189
CRC32 hash (test run) : 5FFD2AEF
CRC32 hash : 5FFD2AEF
CRC32 hash (skip zero) : 52DB9735
AccurateRip signature : 3DBA74C4
->Accurately ripped! (AR2, confidence 3)
Statistics
Read error : 0
Jitter error (maybe fixed) : 0
Retry sector count : 0
Damaged sector count : 0
Track 09
Filename : /Users/admin/Music/Jean-Yves Thibaudet, Takashi Harada; Riccardo Chailly: Royal Concertgebouw Orchestra - Olivier Messiaen: Turangalîla-Symphonie (1993) [FLAC]/09 Messiaen: Turangalîla-Symphonie - Turangalîla #3.flac
Pre-gap length : 00:02:63
Track gain : 4.45 dB
Peak : 0.816193
CRC32 hash (test run) : 348A6427
CRC32 hash : 348A6427
CRC32 hash (skip zero) : 97C52A25
AccurateRip signature : B0FE67A6
->Accurately ripped! (AR2, confidence 3)
Statistics
Read error : 0
Jitter error (maybe fixed) : 0
Retry sector count : 0
Damaged sector count : 0
Track 10
Filename : /Users/admin/Music/Jean-Yves Thibaudet, Takashi Harada; Riccardo Chailly: Royal Concertgebouw Orchestra - Olivier Messiaen: Turangalîla-Symphonie (1993) [FLAC]/10 Messiaen: Turangalîla-Symphonie - Final.flac
Pre-gap length : 00:02:00
Track gain : -3.39 dB
Peak : 1.000000
CRC32 hash (test run) : 5106A070
CRC32 hash : 5106A070
CRC32 hash (skip zero) : 736046C2
AccurateRip signature : 5C9FB7FB
->Accurately ripped! (AR2, confidence 3)
Statistics
Read error : 0
Jitter error (maybe fixed) : 0
Retry sector count : 0
Damaged sector count : 0
No errors occurred
End of status report

Содержание индексной карты (.CUE)

TITLE "Turangalîla-Symphonie"
PERFORMER "RCOA · Thibaudet · Chailly"
CATALOG 0028943662628
REM DATE "1993"
REM DISCID A311F40A
REM REPLAYGAIN_ALBUM_GAIN -1.56 dB
REM REPLAYGAIN_ALBUM_PEAK 1.000000
FILE "01. Introduction.flac" WAVE
TRACK 01 AUDIO
TITLE "Introduction"
ISRC GBF079241101
REM REPLAYGAIN_TRACK_GAIN -1.52 dB
REM REPLAYGAIN_TRACK_PEAK 0.986938
PREGAP 00:00:32
INDEX 01 00:00:00
TRACK 02 AUDIO
TITLE "Chant d’amour I"
ISRC GBF079241102
REM REPLAYGAIN_TRACK_GAIN -1.53 dB
REM REPLAYGAIN_TRACK_PEAK 0.989777
INDEX 00 06:19:63
FILE "02. Chant d’amour I.flac" WAVE
INDEX 01 00:00:00
TRACK 03 AUDIO
TITLE "Turangalîla I"
ISRC GBF079241103
REM REPLAYGAIN_TRACK_GAIN -0.42 dB
REM REPLAYGAIN_TRACK_PEAK 0.984741
INDEX 00 07:58:50
FILE "03. Turangalîla I.flac" WAVE
INDEX 01 00:00:00
TRACK 04 AUDIO
TITLE "Chant d’amour II"
ISRC GBF079241104
REM REPLAYGAIN_TRACK_GAIN 0.12 dB
REM REPLAYGAIN_TRACK_PEAK 0.942932
INDEX 00 05:56:00
FILE "04. Chant d’amour II.flac" WAVE
INDEX 01 00:00:00
TRACK 05 AUDIO
TITLE "Joie du sang des etoiles"
ISRC GBF079241105
REM REPLAYGAIN_TRACK_GAIN -2.70 dB
REM REPLAYGAIN_TRACK_PEAK 0.996307
INDEX 00 11:11:00
FILE "05. Joie du sang des etoiles.flac" WAVE
INDEX 01 00:00:00
TRACK 06 AUDIO
TITLE "Jardin du sommeil d’amour"
ISRC GBF079241106
REM REPLAYGAIN_TRACK_GAIN 9.92 dB
REM REPLAYGAIN_TRACK_PEAK 0.200836
INDEX 00 06:18:38
FILE "06. Jardin du sommeil d’amour.flac" WAVE
INDEX 01 00:00:00
TRACK 07 AUDIO
TITLE "Turangalîla II"
ISRC GBF079241107
REM REPLAYGAIN_TRACK_GAIN -0.55 dB
REM REPLAYGAIN_TRACK_PEAK 0.984436
INDEX 00 11:40:25
FILE "07. Turangalîla II.flac" WAVE
INDEX 01 00:00:00
TRACK 08 AUDIO
TITLE "Développement de l’amour"
ISRC GBF079241108
REM REPLAYGAIN_TRACK_GAIN -2.80 dB
REM REPLAYGAIN_TRACK_PEAK 0.975189
INDEX 00 03:44:50
FILE "08. Développement de l’amour.flac" WAVE
INDEX 01 00:00:00
TRACK 09 AUDIO
TITLE "Turangalîla III"
ISRC GBF079241109
REM REPLAYGAIN_TRACK_GAIN 4.45 dB
REM REPLAYGAIN_TRACK_PEAK 0.816193
INDEX 00 10:43:25
FILE "09. Turangalîla III.flac" WAVE
INDEX 01 00:00:00
TRACK 10 AUDIO
TITLE "Final"
ISRC GBF079241110
REM REPLAYGAIN_TRACK_GAIN -3.39 dB
REM REPLAYGAIN_TRACK_PEAK 1.000000
INDEX 00 05:17:25
FILE "10. Final.flac" WAVE
INDEX 01 00:00:00



Показать сообщения:    

Текущее время: 10-Дек 04:13

Часовой пояс: UTC + 3


Вы не можете начинать темы
Вы не можете отвечать на сообщения
Вы не можете редактировать свои сообщения
Вы не можете удалять свои сообщения
Вы не можете голосовать в опросах
Вы не можете прикреплять файлы к сообщениям
Вы не можете скачивать файлы