(Classical) Bedrich Smetana - Orchestral Works, Vol.2: Music from 'The Bartered Bride', 'The Two Widows', 'The Devil’s Wall', 'Dalibor' - BBC Philharmonic, Gianandrea Noseda - 2009, FLAC (image+.cue) lossless


 

[Цитировать]

Bedřich Smetana - Orchestral Works, Vol.2: Music from 'The Bartered Bride', 'The Two Widows', 'The Devil’s Wall', 'Dalibor' - BBC Philharmonic, Gianandrea Noseda
Жанр: Classical
Страна-производитель диска: UK
Год издания диска: 2009
Издатель (лейбл): Chandos Records
Номер по каталогу: CHAN 10518
Дата записи: 2008
Аудиокодек: FLAC
Тип рипа: image+.cue
Битрейт аудио: lossless
Продолжительность: 72:33
Источник: собственный рип
Наличие сканов в содержимом раздачи: да
Треклист:
Bedřich Smetana (1824-1884)
[1]-[4] from ‘The Bartered Bride’ (Prodaná nevěsta)
[5] Overture to ‘The Secret’ (Tajemstvi)
[6] Prelude to ‘Libuše’
[7]-[8] from ‘The Devil’s Wall’ (Čertova stěna)
[9]-[10] from ‘The Brandenburgers in Bohemia’ (Braniboři v Čechách)
[11] Overture to ‘The Kiss’ (Hubička)
[12] Entr’acte from ‘Dalibor’
[13]-[15] from ‘The Two Widows’ (Dvě vdovy)
Исполнители:
BBC Philharmonic
Gianandrea Noseda

Лог создания рипа

Exact Audio Copy V1.1 from 23. June 2015
EAC extraction logfile from 22. August 2015, 14:40
BBC Philharmonic, Gianandrea Noseda / Smetana - Orchestral Works, Vol.2
Used drive : HL-DT-STDVDRAM GU70N Adapter: 1 ID: 0
Read mode : Secure
Utilize accurate stream : Yes
Defeat audio cache : Yes
Make use of C2 pointers : No
Read offset correction : 48
Overread into Lead-In and Lead-Out : No
Fill up missing offset samples with silence : Yes
Delete leading and trailing silent blocks : No
Null samples used in CRC calculations : Yes
Used interface : Native Win32 interface for Win NT & 2000
Used output format : User Defined Encoder
Selected bitrate : 128 kBit/s
Quality : High
Add ID3 tag : No
Command line compressor : C:\Program Files (x86)\Exact Audio Copy\Flac\flac.exe
Additional command line options : -V -8 -T "Date=%year%" -T "Genre=%genre%" %source%
TOC of the extracted CD
Track | Start | Length | Start sector | End sector
---------------------------------------------------------
1 | 0:00.00 | 6:30.63 | 0 | 29312
2 | 6:30.63 | 5:24.10 | 29313 | 53622
3 | 11:54.73 | 2:22.40 | 53623 | 64312
4 | 14:17.38 | 6:13.55 | 64313 | 92342
5 | 20:31.18 | 6:38.20 | 92343 | 122212
6 | 27:09.38 | 9:45.25 | 122213 | 166112
7 | 36:54.63 | 4:11.00 | 166113 | 184937
8 | 41:05.63 | 2:49.10 | 184938 | 197622
9 | 43:54.73 | 0:49.40 | 197623 | 201337
10 | 44:44.38 | 2:24.45 | 201338 | 212182
11 | 47:09.08 | 5:56.30 | 212183 | 238912
12 | 53:05.38 | 6:11.25 | 238913 | 266762
13 | 59:16.63 | 7:06.10 | 266763 | 298722
14 | 66:22.73 | 2:25.65 | 298723 | 309662
15 | 68:48.63 | 3:45.12 | 309663 | 326549
Range status and errors
Selected range
Filename C:\temp\Smetana - Orchestral Works, Vol.2 - BBC Philharmonic, Noseda\Smetana - Orchestral Works, Vol.2.wav
Peak level 98.9 %
Extraction speed 2.3 X
Range quality 100.0 %
Test CRC A30BD225
Copy CRC A30BD225
Copy OK
No errors occurred
AccurateRip summary
Track 1 accurately ripped (confidence 7) [E88FEAF8] (AR v2)
Track 2 accurately ripped (confidence 7) [B8D2D9D2] (AR v2)
Track 3 accurately ripped (confidence 7) [E458F7FC] (AR v2)
Track 4 accurately ripped (confidence 7) [12B5051E] (AR v2)
Track 5 accurately ripped (confidence 7) [5A0107A5] (AR v2)
Track 6 accurately ripped (confidence 7) [5EDDD447] (AR v2)
Track 7 accurately ripped (confidence 7) [1BD94B28] (AR v2)
Track 8 accurately ripped (confidence 7) [4AFA15E8] (AR v2)
Track 9 accurately ripped (confidence 7) [ED940430] (AR v2)
Track 10 accurately ripped (confidence 7) [7F322E6D] (AR v2)
Track 11 accurately ripped (confidence 7) [858019F1] (AR v2)
Track 12 accurately ripped (confidence 7) [8381E68B] (AR v2)
Track 13 accurately ripped (confidence 7) [C766C155] (AR v2)
Track 14 accurately ripped (confidence 7) [1001696B] (AR v2)
Track 15 accurately ripped (confidence 7) [2FCF58FB] (AR v2)
All tracks accurately ripped
End of status report
==== Log checksum 741692960D06D7D33716E48DE68BB8ACB4376784D37317AE05E31C66F0153315 ====



Показать сообщения:    

Текущее время: 06-Дек 13:16

Часовой пояс: UTC + 3


Вы не можете начинать темы
Вы не можете отвечать на сообщения
Вы не можете редактировать свои сообщения
Вы не можете удалять свои сообщения
Вы не можете голосовать в опросах
Вы не можете прикреплять файлы к сообщениям
Вы не можете скачивать файлы