(Opera) Jacques Offenbach - Les Contes d'Hoffmann / Оффенбах - Сказки Гофмана (Lee Schaenen; George London, Alarie Pierrette, Suzanne Danco, Lucretia West, Leopold Simoneau, Renato Capecchi), 1956 - Studio of RAI Milano, FLAC (tracks+.cue), lossless


 

[Цитировать]

Jacques Offenbach - Les Contes d'Hoffmann / Жак Оффенбах - Сказки Гофмана (Lee Schaenen; George London, Alarie Pierrette, Suzanne Danco, Lucretia West, Leopold Simoneau, Renato Capecchi)
Жанр: Opera
Страна-производитель диска: Италия
Год издания диска: 1999
Издатель (лейбл): Della Voce Luna
Дата записи: 1954
Аудиокодек: FLAC
Тип рипа: tracks+.cue
Битрейт аудио: lossless
Продолжительность: 130:29
Источник: релизер (Guillermo)
Наличие сканов в содержимом раздачи: да
Исполнители:
Lindorf/Coppélius/Docteur Miracle/Dapertutto - George London,
Olympia - Alarie Pierrette,
Antonia/Giulietta/La Muse - Suzanne Danco,
Nicklausse/La Mère d'Antonia - Lucretia West,
Hoffmann - Leopold Simoneau,
Spalanzani/Andres - Renato Capecchi,
Frantz/Cochenille/Pitichinacchio - Robert Destain,
Schlemil/Luther - Renato Cesari,
Crespil - Dezsö Ernster,
Cochenille/Pitichinacchio - Robert Destain,
Nathanael - Ezio De Giorgi.
Conductor - Lee Schaenen,
Orchestra and Chorus of RAI Milano.
Recorded at Studio of RAI Milano, September 09, 1956.

Лог создания рипаЛог создания рипа CD 1

Exact Audio Copy V1.0 beta 3 from 29. August 2011
EAC extraction logfile from 20. August 2015, 7:07
Jacques Offenbach / Les Contes d'Hoffmann (1954 Schaenen)
Used drive : HL-DT-STDVDRAM GH24NSC0 Adapter: 3 ID: 0
Read mode : Secure
Utilize accurate stream : Yes
Defeat audio cache : Yes
Make use of C2 pointers : No
Read offset correction : 6
Overread into Lead-In and Lead-Out : No
Fill up missing offset samples with silence : Yes
Delete leading and trailing silent blocks : No
Null samples used in CRC calculations : Yes
Used interface : Native Win32 interface for Win NT & 2000
Gap handling : Appended to previous track
Used output format : User Defined Encoder
Selected bitrate : 768 kBit/s
Quality : High
Add ID3 tag : No
Command line compressor : C:\Program Files (x86)\Exact Audio Copy\FLAC\FLAC.EXE
Additional command line options : -8 -V -T "ARTIST=%artist%" -T "TITLE=%title%" -T "ALBUM=%albumtitle%" -T "DATE=%year%" -T "TRACKNUMBER=%tracknr%" -T "GENRE=%genre%" -T "PERFORMER=%albuminterpret%" -T "COMPOSER=%composer%" %haslyrics%--tag-from-file=LYRICS="%lyricsfile%"%haslyrics% -T "ALBUMARTIST=%albumartist%" -T "DISCNUMBER=%cdnumber%" -T "TOTALDISCS=%totalcds%" -T "TOTALTRACKS=%numtracks%" -T "COMMENT=%comment%" %source% -o %dest%
TOC of the extracted CD
Track | Start | Length | Start sector | End sector
---------------------------------------------------------
1 | 0:00.00 | 0:26.26 | 0 | 1975
2 | 0:26.26 | 1:09.46 | 1976 | 7196
3 | 1:35.72 | 2:30.40 | 7197 | 18486
4 | 4:06.37 | 1:30.01 | 18487 | 25237
5 | 5:36.38 | 0:52.53 | 25238 | 29190
6 | 6:29.16 | 2:13.01 | 29191 | 39166
7 | 8:42.17 | 3:13.70 | 39167 | 53711
8 | 11:56.12 | 4:41.64 | 53712 | 74850
9 | 16:38.01 | 1:30.27 | 74851 | 81627
10 | 18:08.28 | 4:34.71 | 81628 | 102248
11 | 22:43.24 | 1:09.31 | 102249 | 107454
12 | 23:52.55 | 1:46.37 | 107455 | 115441
13 | 25:39.17 | 2:04.60 | 115442 | 124801
14 | 27:44.02 | 2:34.68 | 124802 | 136419
15 | 30:18.70 | 3:26.40 | 136420 | 151909
16 | 33:45.35 | 1:53.67 | 151910 | 160451
17 | 35:39.27 | 1:43.10 | 160452 | 168186
18 | 37:22.37 | 1:41.68 | 168187 | 175829
19 | 39:04.30 | 1:32.04 | 175830 | 182733
20 | 40:36.34 | 5:09.16 | 182734 | 205924
21 | 45:45.50 | 1:58.36 | 205925 | 214810
22 | 47:44.11 | 2:02.65 | 214811 | 224025
23 | 49:47.01 | 1:40.07 | 224026 | 231532
24 | 51:27.08 | 5:15.22 | 231533 | 255179
25 | 56:42.30 | 3:50.37 | 255180 | 272466
26 | 60:32.67 | 1:10.50 | 272467 | 277766
27 | 61:43.42 | 1:51.64 | 277767 | 286155
28 | 63:35.31 | 3:00.32 | 286156 | 299687
Track 1
Filename f:\Users\Guillermo\Desktop\EAC convertidos\01 Acte 1 - Prélude.wav
Pre-gap length 0:00:02.00
Peak level 37.4 %
Extraction speed 0.5 X
Track quality 100.0 %
Test CRC 97C545CC
Copy CRC 97C545CC
Copy OK
Track 2
Filename f:\Users\Guillermo\Desktop\EAC convertidos\02 Acte 1 - Glou, glou, glou....wav
Peak level 18.7 %
Extraction speed 1.0 X
Track quality 100.0 %
Test CRC BBD7001D
Copy CRC BBD7001D
Copy OK
Track 3
Filename f:\Users\Guillermo\Desktop\EAC convertidos\03 Acte 1 - Le conseiller Lindorf, morbleu!.wav
Peak level 43.5 %
Extraction speed 1.4 X
Track quality 100.0 %
Test CRC D5341419
Copy CRC D5341419
Copy OK
Track 4
Filename f:\Users\Guillermo\Desktop\EAC convertidos\04 Acte 1 - Oui, l'on devient digne d'envie.wav
Peak level 45.7 %
Extraction speed 1.3 X
Track quality 100.0 %
Test CRC B49312EC
Copy CRC B49312EC
Copy OK
Track 5
Filename f:\Users\Guillermo\Desktop\EAC convertidos\05 Acte 1 - Deux heures devant moi.wav
Peak level 41.6 %
Extraction speed 1.0 X
Track quality 100.0 %
Test CRC 0BDDCD55
Copy CRC 0BDDCD55
Copy OK
Track 6
Filename f:\Users\Guillermo\Desktop\EAC convertidos\06 Acte 1 - Drig, drig, drig.wav
Peak level 45.9 %
Extraction speed 1.6 X
Track quality 100.0 %
Test CRC 3E600F6E
Copy CRC 3E600F6E
Copy OK
Track 7
Filename f:\Users\Guillermo\Desktop\EAC convertidos\07 Acte 1 - Comment Hoffmann n'est-il pas là.wav
Peak level 38.9 %
Extraction speed 1.8 X
Track quality 100.0 %
Test CRC 9D5898B3
Copy CRC 9D5898B3
Copy OK
Track 8
Filename f:\Users\Guillermo\Desktop\EAC convertidos\08 Acte 1 - Va pour Kleinzach.wav
Peak level 39.6 %
Extraction speed 2.1 X
Track quality 100.0 %
Test CRC 20E23A42
Copy CRC 20E23A42
Copy OK
Track 9
Filename f:\Users\Guillermo\Desktop\EAC convertidos\09 Acte 1 - Peuh! Cette bière est détestable!.wav
Peak level 38.6 %
Extraction speed 1.6 X
Track quality 100.0 %
Test CRC EEFF46E0
Copy CRC EEFF46E0
Copy OK
Track 10
Filename f:\Users\Guillermo\Desktop\EAC convertidos\10 Acte 1 - Je vous dis, moi....wav
Peak level 39.6 %
Extraction speed 2.3 X
Track quality 100.0 %
Test CRC D34B4255
Copy CRC D34B4255
Copy OK
Track 11
Filename f:\Users\Guillermo\Desktop\EAC convertidos\11 Acte 2 - Entr'acte.wav
Pre-gap length 0:00:01.00
Peak level 72.2 %
Extraction speed 1.6 X
Track quality 100.0 %
Test CRC B447F54C
Copy CRC B447F54C
Copy OK
Track 12
Filename f:\Users\Guillermo\Desktop\EAC convertidos\12 Acte 2 - Là! Dors en paix.wav
Peak level 73.9 %
Extraction speed 1.9 X
Track quality 100.0 %
Test CRC DAFBEDF7
Copy CRC DAFBEDF7
Copy OK
Track 13
Filename f:\Users\Guillermo\Desktop\EAC convertidos\13 Acte 2 - Allons! Courage et confiance.wav
Peak level 72.5 %
Extraction speed 2.0 X
Track quality 100.0 %
Test CRC F81494DA
Copy CRC F81494DA
Copy OK
Track 14
Filename f:\Users\Guillermo\Desktop\EAC convertidos\14 Acte 2 - Par Dieu!.wav
Peak level 60.5 %
Extraction speed 2.2 X
Track quality 100.0 %
Test CRC 859F54BD
Copy CRC 859F54BD
Copy OK
Track 15
Filename f:\Users\Guillermo\Desktop\EAC convertidos\15 Acte 2 - C'est moi, Coppélius.wav
Peak level 63.5 %
Extraction speed 2.5 X
Track quality 100.0 %
Test CRC 06CBDE82
Copy CRC 06CBDE82
Copy OK
Track 16
Filename f:\Users\Guillermo\Desktop\EAC convertidos\16 Acte 2 - Hein! Vous!.wav
Peak level 51.5 %
Extraction speed 2.2 X
Track quality 100.0 %
Test CRC A0713A0C
Copy CRC A0713A0C
Copy OK
Track 17
Filename f:\Users\Guillermo\Desktop\EAC convertidos\17 Acte 2 - Non, aucum hôte vraiment.wav
Peak level 56.1 %
Extraction speed 2.1 X
Track quality 100.0 %
Test CRC 46D7A0F0
Copy CRC 46D7A0F0
Copy OK
Track 18
Filename f:\Users\Guillermo\Desktop\EAC convertidos\18 Acte 2 - Vous serez satisfaits.wav
Peak level 53.8 %
Extraction speed 2.2 X
Track quality 100.0 %
Test CRC 30A9A1EC
Copy CRC 30A9A1EC
Copy OK
Track 19
Filename f:\Users\Guillermo\Desktop\EAC convertidos\19 Acte 2 - Mesdames et Messieurs.wav
Peak level 38.5 %
Extraction speed 2.1 X
Track quality 100.0 %
Test CRC 3DD3DC78
Copy CRC 3DD3DC78
Copy OK
Track 20
Filename f:\Users\Guillermo\Desktop\EAC convertidos\20 Acte 2 - Les oiseaux dans la charmille.wav
Peak level 49.3 %
Extraction speed 2.9 X
Track quality 100.0 %
Test CRC 55E23469
Copy CRC 55E23469
Copy OK
Track 21
Filename f:\Users\Guillermo\Desktop\EAC convertidos\21 Acte 2 - Ah! Mon ami! Quel accent.wav
Peak level 55.5 %
Extraction speed 2.4 X
Track quality 100.0 %
Test CRC A14977BB
Copy CRC A14977BB
Copy OK
Track 22
Filename f:\Users\Guillermo\Desktop\EAC convertidos\22 Acte 2 - Ils se sout éloignés enfin!.wav
Peak level 43.3 %
Extraction speed 2.5 X
Track quality 100.0 %
Test CRC 6EDADC2E
Copy CRC 6EDADC2E
Copy OK
Track 23
Filename f:\Users\Guillermo\Desktop\EAC convertidos\23 Acte 2 - Tu me fuis Qu'ai-je fait.wav
Peak level 53.9 %
Extraction speed 2.3 X
Track quality 100.0 %
Test CRC 3EC34A9F
Copy CRC 3EC34A9F
Copy OK
Track 24
Filename f:\Users\Guillermo\Desktop\EAC convertidos\24 Acte 2 - Voici les valseurs.wav
Peak level 50.4 %
Extraction speed 3.2 X
Track quality 100.0 %
Test CRC 7E43A305
Copy CRC 7E43A305
Copy OK
Track 25
Filename f:\Users\Guillermo\Desktop\EAC convertidos\25 Acte 3 - Belle nuit, ô nuit d'amour.wav
Pre-gap length 0:00:02.00
Peak level 46.6 %
Extraction speed 3.1 X
Track quality 100.0 %
Test CRC 75BC6D46
Copy CRC 75BC6D46
Copy OK
Track 26
Filename f:\Users\Guillermo\Desktop\EAC convertidos\26 Acte 3 - Et moi, ce n'est pas là.wav
Peak level 58.8 %
Extraction speed 2.2 X
Track quality 100.0 %
Test CRC 984CF418
Copy CRC 984CF418
Copy OK
Track 27
Filename f:\Users\Guillermo\Desktop\EAC convertidos\27 Acte 3 - Morbleu! ... Au jeu!.wav
Peak level 58.4 %
Extraction speed 2.0 X
Track quality 99.8 %
Test CRC 762742AE
Copy CRC 762742AE
Copy OK
Track 28
Filename f:\Users\Guillermo\Desktop\EAC convertidos\28 Acte 3 - Scintille, diamant!.wav
Peak level 65.6 %
Extraction speed 3.1 X
Track quality 100.0 %
Test CRC 4066DB95
Copy CRC 4066DB95
Copy OK
No errors occurred
End of status report
==== Log checksum 783E7367E2F893C68F9ED4524D6C5A436020759BF89BD155BA82C9213BF225D7 ====

Лог создания рипа CD 2

Exact Audio Copy V1.0 beta 3 from 29. August 2011
EAC extraction logfile from 20. August 2015, 8:19
Jacques Offenbach / Les Contes d'Hoffmann (1954 Schaenen) - CD2
Used drive : HL-DT-STDVDRAM GH24NSC0 Adapter: 3 ID: 0
Read mode : Secure
Utilize accurate stream : Yes
Defeat audio cache : Yes
Make use of C2 pointers : No
Read offset correction : 6
Overread into Lead-In and Lead-Out : No
Fill up missing offset samples with silence : Yes
Delete leading and trailing silent blocks : No
Null samples used in CRC calculations : Yes
Used interface : Native Win32 interface for Win NT & 2000
Gap handling : Appended to previous track
Used output format : User Defined Encoder
Selected bitrate : 768 kBit/s
Quality : High
Add ID3 tag : No
Command line compressor : C:\Program Files (x86)\Exact Audio Copy\FLAC\FLAC.EXE
Additional command line options : -8 -V -T "ARTIST=%artist%" -T "TITLE=%title%" -T "ALBUM=%albumtitle%" -T "DATE=%year%" -T "TRACKNUMBER=%tracknr%" -T "GENRE=%genre%" -T "PERFORMER=%albuminterpret%" -T "COMPOSER=%composer%" %haslyrics%--tag-from-file=LYRICS="%lyricsfile%"%haslyrics% -T "ALBUMARTIST=%albumartist%" -T "DISCNUMBER=%cdnumber%" -T "TOTALDISCS=%totalcds%" -T "TOTALTRACKS=%numtracks%" -T "COMMENT=%comment%" %source% -o %dest%
TOC of the extracted CD
Track | Start | Length | Start sector | End sector
---------------------------------------------------------
1 | 0:00.00 | 4:37.12 | 0 | 20786
2 | 4:37.12 | 2:15.70 | 20787 | 30981
3 | 6:53.07 | 1:42.15 | 30982 | 38646
4 | 8:35.22 | 3:14.04 | 38647 | 53200
5 | 11:49.26 | 3:13.71 | 53201 | 67746
6 | 15:03.22 | 4:50.31 | 67747 | 89527
7 | 19:53.53 | 2:59.30 | 89528 | 102982
8 | 22:53.08 | 3:10.61 | 102983 | 117293
9 | 26:03.69 | 0:43.64 | 117294 | 120582
10 | 26:47.58 | 1:40.42 | 120583 | 128124
11 | 28:28.25 | 4:33.20 | 128125 | 148619
12 | 33:01.45 | 2:37.41 | 148620 | 160435
13 | 35:39.11 | 7:01.45 | 160436 | 192055
14 | 42:40.56 | 2:53.64 | 192056 | 205094
15 | 45:34.45 | 8:56.13 | 205095 | 245307
16 | 54:30.58 | 2:41.04 | 245308 | 257386
17 | 57:11.62 | 1:46.52 | 257387 | 265388
18 | 58:58.39 | 3:07.08 | 265389 | 279421
19 | 62:05.47 | 2:00.45 | 279422 | 288466
20 | 64:06.17 | 1:04.48 | 288467 | 293314
Track 1
Filename f:\Users\Guillermo\Desktop\EAC convertidos\01 Acte 3 - Cher ange!.wav
Pre-gap length 0:00:02.00
Peak level 74.4 %
Extraction speed 1.6 X
Track quality 100.0 %
Test CRC 8E08E91B
Copy CRC 8E08E91B
Copy OK
Track 2
Filename f:\Users\Guillermo\Desktop\EAC convertidos\02 Acte 3 - Aujourd'hui, cependant....wav
Peak level 63.1 %
Extraction speed 1.5 X
Track quality 100.0 %
Test CRC 0D8404BC
Copy CRC 0D8404BC
Copy OK
Track 3
Filename f:\Users\Guillermo\Desktop\EAC convertidos\03 Acte 3 - Schlemihl! ... J'en étais sûr!.wav
Peak level 65.5 %
Extraction speed 1.4 X
Track quality 100.0 %
Test CRC 13845F6B
Copy CRC 13845F6B
Copy OK
Track 4
Filename f:\Users\Guillermo\Desktop\EAC convertidos\04 Acte 3 - Hélas! Mon coeur s'égare encore!.wav
Peak level 68.3 %
Extraction speed 1.5 X
Track quality 99.8 %
Test CRC D512FF51
Copy CRC D512FF51
Copy OK
Track 5
Filename f:\Users\Guillermo\Desktop\EAC convertidos\05 Acte 3 - Ecoutez, messieurs!.wav
Peak level 67.4 %
Extraction speed 1.9 X
Track quality 100.0 %
Test CRC 1CBBA293
Copy CRC 1CBBA293
Copy OK
Track 6
Filename f:\Users\Guillermo\Desktop\EAC convertidos\06 Acte 4 - Elle a fui, la tourterelle.wav
Pre-gap length 0:00:01.96
Peak level 57.6 %
Extraction speed 2.2 X
Track quality 100.0 %
Test CRC 33B0EC42
Copy CRC 33B0EC42
Copy OK
Track 7
Filename f:\Users\Guillermo\Desktop\EAC convertidos\07 Acte 4 - Malheureuse enfant!.wav
Peak level 48.5 %
Extraction speed 1.7 X
Track quality 99.8 %
Test CRC 3741C599
Copy CRC 3741C599
Copy OK
Track 8
Filename f:\Users\Guillermo\Desktop\EAC convertidos\08 Acte 4 - Jour et nuit je me mets en quatre.wav
Peak level 53.1 %
Extraction speed 2.2 X
Track quality 100.0 %
Test CRC CF4E715C
Copy CRC CF4E715C
Copy OK
Track 9
Filename f:\Users\Guillermo\Desktop\EAC convertidos\09 Acte 4 - Frantz! ... C'est ici!.wav
Peak level 46.7 %
Extraction speed 1.3 X
Track quality 100.0 %
Test CRC 50F170C2
Copy CRC 50F170C2
Copy OK
Track 10
Filename f:\Users\Guillermo\Desktop\EAC convertidos\10 Acte 4 - C'est une chanson d'amour qui s'envole.wav
Peak level 72.2 %
Extraction speed 1.9 X
Track quality 100.0 %
Test CRC E0ED11F7
Copy CRC E0ED11F7
Copy OK
Track 11
Filename f:\Users\Guillermo\Desktop\EAC convertidos\11 Acte 4 - Pourtant, ô ma fiancée.wav
Peak level 75.0 %
Extraction speed 2.5 X
Track quality 100.0 %
Test CRC DA64B021
Copy CRC DA64B021
Copy OK
Track 12
Filename f:\Users\Guillermo\Desktop\EAC convertidos\12 Acte 4 - Qu'as-tu donc.wav
Peak level 68.3 %
Extraction speed 2.4 X
Track quality 100.0 %
Test CRC BF89E848
Copy CRC BF89E848
Copy OK
Track 13
Filename f:\Users\Guillermo\Desktop\EAC convertidos\13 Acte 4 - Pour conjurer le danger.wav
Peak level 62.4 %
Extraction speed 2.7 X
Track quality 99.9 %
Test CRC 23BEC417
Copy CRC 23BEC417
Copy OK
Track 14
Filename f:\Users\Guillermo\Desktop\EAC convertidos\14 Acte 4 - Ne plus canter.wav
Peak level 33.1 %
Extraction speed 2.6 X
Track quality 100.0 %
Test CRC 2610EDBB
Copy CRC 2610EDBB
Copy OK
Track 15
Filename f:\Users\Guillermo\Desktop\EAC convertidos\15 Acte 4 - Tu ne chanteras plus.wav
Peak level 64.6 %
Extraction speed 3.3 X
Track quality 100.0 %
Test CRC FE5250CF
Copy CRC FE5250CF
Copy OK
Track 16
Filename f:\Users\Guillermo\Desktop\EAC convertidos\16 Acte 4 - Mon enfant! Ma fille.wav
Peak level 60.3 %
Extraction speed 2.8 X
Track quality 100.0 %
Test CRC 0B197507
Copy CRC 0B197507
Copy OK
Track 17
Filename f:\Users\Guillermo\Desktop\EAC convertidos\17 Acte 4 - Entra'acte.wav
Peak level 34.0 %
Extraction speed 2.5 X
Track quality 100.0 %
Test CRC DFFA421B
Copy CRC DFFA421B
Copy OK
Track 18
Filename f:\Users\Guillermo\Desktop\EAC convertidos\18 Acte 4 - Voici quelle fut l'histoire....wav
Peak level 56.4 %
Extraction speed 3.0 X
Track quality 100.0 %
Test CRC 0EA35F24
Copy CRC 0EA35F24
Copy OK
Track 19
Filename f:\Users\Guillermo\Desktop\EAC convertidos\19 Acte 4 - Eh bien! Hoffmann.wav
Peak level 53.1 %
Extraction speed 2.7 X
Track quality 100.0 %
Test CRC ACF06839
Copy CRC ACF06839
Copy OK
Track 20
Filename f:\Users\Guillermo\Desktop\EAC convertidos\20 Acte 4 - Hoffmann Endormi! ....wav
Peak level 62.4 %
Extraction speed 2.0 X
Track quality 100.0 %
Test CRC 58A02855
Copy CRC 58A02855
Copy OK
No errors occurred
End of status report
==== Log checksum 76A70541475C2897D310E0D42184A5929BD0C6A62581E9389D4C4156FF0D01CB ====

Содержание индексной карты (.CUE)

Содержание индексной карты (.CUE) CD 1

REM GENRE Opera
REM DATE 1954
REM DISCID 860F9B1C
REM COMMENT "ExactAudioCopy v1.0b3"
FILE "01 Acte 1 - Prйlude.wav" WAVE
TRACK 01 AUDIO
INDEX 01 00:00:00
FILE "02 Acte 1 - Glou, glou, glou....wav" WAVE
TRACK 02 AUDIO
INDEX 01 00:00:00
FILE "03 Acte 1 - Le conseiller Lindorf, morbleu!.wav" WAVE
TRACK 03 AUDIO
INDEX 01 00:00:00
FILE "04 Acte 1 - Oui, l'on devient digne d'envie.wav" WAVE
TRACK 04 AUDIO
INDEX 01 00:00:00
FILE "05 Acte 1 - Deux heures devant moi.wav" WAVE
TRACK 05 AUDIO
INDEX 01 00:00:00
FILE "06 Acte 1 - Drig, drig, drig.wav" WAVE
TRACK 06 AUDIO
INDEX 01 00:00:00
FILE "07 Acte 1 - Comment Hoffmann n'est-il pas lа.wav" WAVE
TRACK 07 AUDIO
INDEX 01 00:00:00
FILE "08 Acte 1 - Va pour Kleinzach.wav" WAVE
TRACK 08 AUDIO
INDEX 01 00:00:00
FILE "09 Acte 1 - Peuh! Cette biиre est dйtestable!.wav" WAVE
TRACK 09 AUDIO
INDEX 01 00:00:00
FILE "10 Acte 1 - Je vous dis, moi....wav" WAVE
TRACK 10 AUDIO
INDEX 01 00:00:00
TRACK 11 AUDIO
INDEX 00 04:33:71
FILE "11 Acte 2 - Entr'acte.wav" WAVE
INDEX 01 00:00:00
FILE "12 Acte 2 - Lа! Dors en paix.wav" WAVE
TRACK 12 AUDIO
INDEX 01 00:00:00
FILE "13 Acte 2 - Allons! Courage et confiance.wav" WAVE
TRACK 13 AUDIO
INDEX 01 00:00:00
FILE "14 Acte 2 - Par Dieu!.wav" WAVE
TRACK 14 AUDIO
INDEX 01 00:00:00
FILE "15 Acte 2 - C'est moi, Coppйlius.wav" WAVE
TRACK 15 AUDIO
INDEX 01 00:00:00
FILE "16 Acte 2 - Hein! Vous!.wav" WAVE
TRACK 16 AUDIO
INDEX 01 00:00:00
FILE "17 Acte 2 - Non, aucum hфte vraiment.wav" WAVE
TRACK 17 AUDIO
INDEX 01 00:00:00
FILE "18 Acte 2 - Vous serez satisfaits.wav" WAVE
TRACK 18 AUDIO
INDEX 01 00:00:00
FILE "19 Acte 2 - Mesdames et Messieurs.wav" WAVE
TRACK 19 AUDIO
INDEX 01 00:00:00
FILE "20 Acte 2 - Les oiseaux dans la charmille.wav" WAVE
TRACK 20 AUDIO
INDEX 01 00:00:00
FILE "21 Acte 2 - Ah! Mon ami! Quel accent.wav" WAVE
TRACK 21 AUDIO
INDEX 01 00:00:00
FILE "22 Acte 2 - Ils se sout йloignйs enfin!.wav" WAVE
TRACK 22 AUDIO
INDEX 01 00:00:00
FILE "23 Acte 2 - Tu me fuis Qu'ai-je fait.wav" WAVE
TRACK 23 AUDIO
INDEX 01 00:00:00
FILE "24 Acte 2 - Voici les valseurs.wav" WAVE
TRACK 24 AUDIO
INDEX 01 00:00:00
TRACK 25 AUDIO
INDEX 00 05:13:22
FILE "25 Acte 3 - Belle nuit, ф nuit d'amour.wav" WAVE
INDEX 01 00:00:00
FILE "26 Acte 3 - Et moi, ce n'est pas lа.wav" WAVE
TRACK 26 AUDIO
INDEX 01 00:00:00
FILE "27 Acte 3 - Morbleu! ... Au jeu!.wav" WAVE
TRACK 27 AUDIO
INDEX 01 00:00:00
FILE "28 Acte 3 - Scintille, diamant!.wav" WAVE
TRACK 28 AUDIO
INDEX 01 00:00:00

Содержание индексной карты (.CUE) CD 2

[pre]REM GENRE Opera
REM DATE 1954
REM DISCID 1C0F4614
REM COMMENT "ExactAudioCopy v1.0b3"
FILE "01 Acte 3 - Cher ange!.wav" WAVE
TRACK 01 AUDIO
INDEX 01 00:00:00
FILE "02 Acte 3 - Aujourd'hui, cependant....wav" WAVE
TRACK 02 AUDIO
INDEX 01 00:00:00
FILE "03 Acte 3 - Schlemihl! ... J'en йtais sыr!.wav" WAVE
TRACK 03 AUDIO
INDEX 01 00:00:00
FILE "04 Acte 3 - Hйlas! Mon coeur s'йgare encore!.wav" WAVE
TRACK 04 AUDIO
INDEX 01 00:00:00
FILE "05 Acte 3 - Ecoutez, messieurs!.wav" WAVE
TRACK 05 AUDIO
INDEX 01 00:00:00
TRACK 06 AUDIO
INDEX 00 03:11:74
FILE "06 Acte 4 - Elle a fui, la tourterelle.wav" WAVE
INDEX 01 00:00:00
FILE "07 Acte 4 - Malheureuse enfant!.wav" WAVE
TRACK 07 AUDIO
INDEX 01 00:00:00
FILE "08 Acte 4 - Jour et nuit je me mets en quatre.wav" WAVE
TRACK 08 AUDIO
INDEX 01 00:00:00
FILE "09 Acte 4 - Frantz! ... C'est ici!.wav" WAVE
TRACK 09 AUDIO
INDEX 01 00:00:00
FILE "10 Acte 4 - C'est une chanson d'amour qui s'envole.wav" WAVE
TRACK 10 AUDIO
INDEX 01 00:00:00
FILE "11 Acte 4 - Pourtant, ф ma fiancйe.wav" WAVE
TRACK 11 AUDIO
INDEX 01 00:00:00
FILE "12 Acte 4 - Qu'as-tu donc.wav" WAVE
TRACK 12 AUDIO
INDEX 01 00:00:00
FILE "13 Acte 4 - Pour conjurer le danger.wav" WAVE
TRACK 13 AUDIO
INDEX 01 00:00:00
FILE "14 Acte 4 - Ne plus canter.wav" WAVE
TRACK 14 AUDIO
INDEX 01 00:00:00
FILE "15 Acte 4 - Tu ne chanteras plus.wav" WAVE
TRACK 15 AUDIO
INDEX 01 00:00:00
FILE "16 Acte 4 - Mon enfant! Ma fille.wav" WAVE
TRACK 16 AUDIO
INDEX 01 00:00:00
FILE "17 Acte 4 - Entra'acte.wav" WAVE
TRACK 17 AUDIO
INDEX 01 00:00:00
FILE "18 Acte 4 - Voici quelle fut l'histoire....wav" WAVE
TRACK 18 AUDIO
INDEX 01 00:00:00
FILE "19 Acte 4 - Eh bien! Hoffmann.wav" WAVE
TRACK 19 AUDIO
INDEX 01 00:00:00
FILE "20 Acte 4 - Hoffmann Endormi! ....wav" WAVE
TRACK 20 AUDIO
INDEX 01 00:00:00

Треклист

Disc 1:
Prologue:
1. Prelude
2. Introduction: Glou, Glou, Glou
3. Le Conseiller Lindorf, morbleu (Lindorf)
4. Oui, l'on devient digne d'envie (Lindorf)
5. Deux heures devant moi (Lindorf!)
6. Drig, drig, drig (Chorus)
7. Comment Hoffmann n'est-il pas la (Hermann)
8. Va pour Kleinzach! (Hoffmann)
9. Peuh! Cette biere est detestable (Hoffmann)
10. Je vous dis, moi (Hoffmann)
Act I:
11. Introduction
12. La! dors en paix (Spalanzani)
13. Allons! Courage et confiance (Hoffmann)
14. Pardieu! Retais bien (Nicklausse)
15. C'est moi, Coppelius (Coppelius)
16. Hein! vous! (Spalanzani)
17. Non, aucun hote vraiment (Chorus)
18. Vous serez satisfaits, messieurs (Spalanzani)
19. Mesdames et Messieurs (Spalanzani)
20. The Doll's Song: Les oiseaux dans la charmille (Olympia)
21. Ah! mon ami! quel accent! (Hoffmann)
22. Ils se sont eloignes enfin! (Hoffmann)
23. Tu me fuis? (Hoffmann)
24. Voici les valseurs! (Spalanzani)
Act II:
25. Entr'acte: Belle nuit, o nuit d'amour, "Barcarolle" (Nicklausse)
26. Et moi, ce n'est pas la pardieu! (Hoffmann)
27. Scintille diamant (Dapertutto)
Disc 2:
1. Cher ange! (Dapertutto)
2. Aujourd'hui, cependant (Giulietta)
3. Schlemihl! (Giulietta)
4. Helas! Man coeur segare encore (Hoffmann)
5. Ecoutez, messieurs! (Giulietta)
Act III:
6. Elle a fui, la tourterelle (Antonia)
7. Malheureuse enfant (Crespel)
8. Jour et nuit je me mets en quatre (Frantz)
9. Franz! c'est ici (Hoffmann)
10. C'est une chanson d'amour (Hoffmann)
11. Pourtant, o ma fiancee (Hoffmann)
12. Qu as-tu donc? (Hoffmann)
13. Pour conjurer le danger (Miracle)
14. Ne plus chanter (Hoffmann)
15. Tu ne chanteras plus? (Miracle)
16. Mon enfant! Ma fille! Antonia! (Crespel)
Epilogue:
17. Intermezzo
18. Voila quelle fut l'histoire de mes amours (Hoffmann)
19. Eh bien! Hoffmann? (Muse)
20. Hoffmann? Endormi! (Nicklausse)



Показать сообщения:    

Текущее время: 21-Янв 11:38

Часовой пояс: UTC + 3


Вы не можете начинать темы
Вы не можете отвечать на сообщения
Вы не можете редактировать свои сообщения
Вы не можете удалять свои сообщения
Вы не можете голосовать в опросах
Вы не можете прикреплять файлы к сообщениям
Вы не можете скачивать файлы