(Classical) Heinrich Schütz|Schutz · Symphoniæ sacræ III | Symphoniae sacrae III (Cantus Cölln|Colln, Concerto Palatino, Konrad Junghänel|Junghanel) · 2005, FLAC (tracks+.cue) lossless


Статистика раздачи [Обновить пиров]
Размер:  564 MB   |    Зарегистрирован:  8 месяцев 18 дней   |    Скачан:  1 раз

Полного источника не было: 1 месяц 26 дней

 
   
 
 
 

[Цитировать]

Heinrich Schütz
Symphoniæ sacræ III

op. 12 (1650)
Жанр: classical
Страна-производитель диска: France
Год издания диска: 2005
Издатель: Harmonia Mundi
Номер по каталогу: HMC 901850.51
Дата записи: 2004
Аудиокодек: FLAC
Тип рипа: tracks+.cue
Битрейт аудио: lossless
Продолжительность: 02:05:58
Источник: скачано с what.cd
Сканы оформления релиза частично представлены
Исполнители:
Cantus Cölln (хор)
Concerto Palatino (оркестр)
Konrad Junghänel (кондуктор)

CD 1

01. Der Herr ist mein Hirt, SWV 398 (5:54)
02. Ich hebe meine Augen auf, SWV 399 (5:03)
03. Wo der Herr nicht das Haus bauet, SWV 400 (7:53)
04. Mein Sohn, warum hast Du uns das getan, SWV 401 (6:49)
05. O, Herr, hilf, SWV 402 (2:46)
06. Siehe, es erschien der Engel des Herren, SWV 403 (4:35)
07. Feget den alten Sauerteig aus, SWV 404 (5:30)
08. O süßer Jesu Christ, SWV 405 (6:32)
09. O Jesu süß, wer dein gedenkt, SWV 406 (3:55)
10. Lasset uns doch den Herren, unseren Gott, loben, SWV 407 (7:20)

Лог создания рипа

Exact Audio Copy V1.0 beta 1 from 15. November 2010
EAC extraction logfile from 18. May 2011, 14:46
Cantus Colln, Concerto Palatino / Heinrich Schutz - Symphoniae Sacrae III, CD1of2
Used drive : HL-DT-STDVDRAM GSA-H62N Adapter: 2 ID: 1
Read mode : Secure
Utilize accurate stream : Yes
Defeat audio cache : Yes
Make use of C2 pointers : No
Read offset correction : 667
Overread into Lead-In and Lead-Out : No
Fill up missing offset samples with silence : Yes
Delete leading and trailing silent blocks : No
Null samples used in CRC calculations : Yes
Used interface : Installed external ASPI interface
Gap handling : Appended to previous track
Used output format : User Defined Encoder
Selected bitrate : 256 kBit/s
Quality : High
Add ID3 tag : No
Command line compressor : C:\Program Files\Exact Audio Copy\Flac\flac.exe
Additional command line options : -8 -V -T "ARTIST=%a" -T "TITLE=%t" -T "ALBUM=%g" -T "DATE=%y" -T "TRACKNUMBER=%n" -T "TOTALTRACKS=%x" -T "GENRE=%m" -T "ALBUMARTIST=%v" -T "ALBUM ARTIST=%v" -T "COMMENT=EAC Secure Mode, Test & Copy, AccurateRip, FLAC -8" %s
TOC of the extracted CD
Track | Start | Length | Start sector | End sector
---------------------------------------------------------
1 | 0:00.00 | 5:53.71 | 0 | 26545
2 | 5:53.71 | 5:03.34 | 26546 | 49304
3 | 10:57.30 | 7:52.66 | 49305 | 84770
4 | 18:50.21 | 6:49.04 | 84771 | 115449
5 | 25:39.25 | 2:46.13 | 115450 | 127912
6 | 28:25.38 | 4:35.23 | 127913 | 148560
7 | 33:00.61 | 5:29.53 | 148561 | 173288
8 | 38:30.39 | 6:31.70 | 173289 | 202683
9 | 45:02.34 | 3:54.43 | 202684 | 220276
10 | 48:57.02 | 7:19.74 | 220277 | 253275
Track 1
Filename G:\Heinrich Schutz - Symphoniae Sacrae III (2005) [FLAC] (2CDs)\Disc 1of2\01 - Der Herr ist mein Hirt, SWV 398.wav
Pre-gap length 0:00:02.00
Peak level 75.2 %
Extraction speed 3.0 X
Track quality 100.0 %
Test CRC 54119048
Copy CRC 54119048
Accurately ripped (confidence 3) [5786EBBC]
Copy OK
Track 2
Filename G:\Heinrich Schutz - Symphoniae Sacrae III (2005) [FLAC] (2CDs)\Disc 1of2\02 - Ich hebe meine Augen auf, SWV 399.wav
Peak level 79.4 %
Extraction speed 3.0 X
Track quality 100.0 %
Test CRC 1DEF2749
Copy CRC 1DEF2749
Accurately ripped (confidence 3) [10625A30]
Copy OK
Track 3
Filename G:\Heinrich Schutz - Symphoniae Sacrae III (2005) [FLAC] (2CDs)\Disc 1of2\03 - Wo der Herr nicht das Haus bauet, SWV 400.wav
Peak level 94.1 %
Extraction speed 2.9 X
Track quality 99.9 %
Test CRC 5BEF0CA4
Copy CRC 5BEF0CA4
Accurately ripped (confidence 3) [D94D5567]
Copy OK
Track 4
Filename G:\Heinrich Schutz - Symphoniae Sacrae III (2005) [FLAC] (2CDs)\Disc 1of2\04 - ein Sohn, warum hast Du uns das getan, SWV 401.wav
Peak level 66.5 %
Extraction speed 3.1 X
Track quality 100.0 %
Test CRC AE830C84
Copy CRC AE830C84
Accurately ripped (confidence 3) [D9AF6CE5]
Copy OK
Track 5
Filename G:\Heinrich Schutz - Symphoniae Sacrae III (2005) [FLAC] (2CDs)\Disc 1of2\05 - O, Herr, hilf, SWV 402.wav
Peak level 80.9 %
Extraction speed 2.7 X
Track quality 100.0 %
Test CRC F1229DF2
Copy CRC F1229DF2
Accurately ripped (confidence 3) [999348FD]
Copy OK
Track 6
Filename G:\Heinrich Schutz - Symphoniae Sacrae III (2005) [FLAC] (2CDs)\Disc 1of2\06 - Siehe, es erschien der Engel des Herren, SWV 403.wav
Peak level 73.2 %
Extraction speed 3.0 X
Track quality 100.0 %
Test CRC 502442FC
Copy CRC 502442FC
Accurately ripped (confidence 3) [D55A97A4]
Copy OK
Track 7
Filename G:\Heinrich Schutz - Symphoniae Sacrae III (2005) [FLAC] (2CDs)\Disc 1of2\07 - Feget den alten Sauerteig aus, SWV 404.wav
Peak level 58.1 %
Extraction speed 2.7 X
Track quality 99.9 %
Test CRC 9DEFCBCD
Copy CRC 9DEFCBCD
Accurately ripped (confidence 3) [7273C18C]
Copy OK
Track 8
Filename G:\Heinrich Schutz - Symphoniae Sacrae III (2005) [FLAC] (2CDs)\Disc 1of2\08 - O susser Jesu Christ, SWV 405.wav
Peak level 74.4 %
Extraction speed 3.1 X
Track quality 100.0 %
Test CRC 9A92C5C1
Copy CRC 9A92C5C1
Accurately ripped (confidence 3) [9486D126]
Copy OK
Track 9
Filename G:\Heinrich Schutz - Symphoniae Sacrae III (2005) [FLAC] (2CDs)\Disc 1of2\09 - O Jesu suss, wer dein gedenkt, SWV 406.wav
Peak level 60.4 %
Extraction speed 2.9 X
Track quality 100.0 %
Test CRC 63DF714B
Copy CRC 63DF714B
Accurately ripped (confidence 3) [E9830809]
Copy OK
Track 10
Filename G:\Heinrich Schutz - Symphoniae Sacrae III (2005) [FLAC] (2CDs)\Disc 1of2\10 - Lasset uns doch den Herren, unseren Gott, loben, SWV 407.wav
Peak level 100.0 %
Extraction speed 2.9 X
Track quality 99.9 %
Test CRC B74D4B6B
Copy CRC B74D4B6B
Accurately ripped (confidence 3) [010F1963]
Copy OK
All tracks accurately ripped
No errors occurred
End of status report
==== Log checksum 4AB6CD0D8801D091D3D90D2D56A4EFA1E2504103AC23CF54609515E3CD61DB4C ====

Содержание индексной карты (.CUE)

REM DATE 2005
REM DISCID 840D310A
REM COMMENT "ExactAudioCopy v1.0b1"
PERFORMER "Cantus Cölln · Concerto Palatino"
TITLE "Symphoniæ sacræ III"
FILE "01. Der Herr ist mein Hirt, SWV 398.wav" WAVE
TRACK 01 AUDIO
TITLE "Der Herr ist mein Hirt, SWV 398"
PERFORMER "Cantus Cölln · Concerto Palatino"
INDEX 01 00:00:00
FILE "02. Ich hebe meine Augen auf, SWV 399.wav" WAVE
TRACK 02 AUDIO
TITLE "Ich hebe meine Augen auf, SWV 399"
PERFORMER "Cantus Cölln · Concerto Palatino"
INDEX 01 00:00:00
FILE "03. Wo der Herr nicht das Haus bauet, SWV 400.wav" WAVE
TRACK 03 AUDIO
TITLE "Wo der Herr nicht das Haus bauet, SWV 400"
PERFORMER "Cantus Cölln · Concerto Palatino"
INDEX 01 00:00:00
FILE "04. Mein Sohn, warum hast Du uns das getan, SWV 401.wav" WAVE
TRACK 04 AUDIO
TITLE "Mein Sohn, warum hast Du uns das getan, SWV 401"
PERFORMER "Cantus Cölln · Concerto Palatino"
INDEX 01 00:00:00
FILE "05. O, Herr, hilf, SWV 402.wav" WAVE
TRACK 05 AUDIO
TITLE "O, Herr, hilf, SWV 402"
PERFORMER "Cantus Cölln · Concerto Palatino"
INDEX 01 00:00:00
FILE "06. Siehe, es erschien der Engel des Herren, SWV 403.wav" WAVE
TRACK 06 AUDIO
TITLE "Siehe, es erschien der Engel des Herren, SWV 403"
PERFORMER "Cantus Cölln · Concerto Palatino"
INDEX 01 00:00:00
FILE "07. Feget den alten Sauerteig aus, SWV 404.wav" WAVE
TRACK 07 AUDIO
TITLE "Feget den alten Sauerteig aus, SWV 404"
PERFORMER "Cantus Cölln · Concerto Palatino"
INDEX 01 00:00:00
FILE "08. O süßer Jesu Christ, SWV 405.wav" WAVE
TRACK 08 AUDIO
TITLE "O süßer Jesu Christ, SWV 405"
PERFORMER "Cantus Cölln · Concerto Palatino"
INDEX 01 00:00:00
FILE "09. O Jesu süß, wer dein gedenkt, SWV 406.wav" WAVE
TRACK 09 AUDIO
TITLE "O Jesu süß, wer dein gedenkt, SWV 406"
PERFORMER "Cantus Cölln · Concerto Palatino"
INDEX 01 00:00:00
FILE "10. Lasset uns doch den Herren, unseren Gott, loben, SWV 407.wav" WAVE
TRACK 10 AUDIO
TITLE "Lasset uns doch den Herren, unseren Gott, loben, SWV 407"
PERFORMER "Cantus Cölln · Concerto Palatino"
INDEX 01 00:00:00

CD 2

01. Es ging ein Sämann aus, SWV 408 (9:15)
02. Seid barmherzig, SWV 409 (8:08)
03. Siehe, dieser wird gesetzt zu einem Fall, SWV 410 (6:00)
04. Vater unser, SWV 411 (5:25)
05. Siehe, wie fein und lieblich, SWV 412 (6:27)
06. Hütet Euch, SWV 413 (6:38)
07. Meister, wir wissen, daß du wahrhaftig bist, SWV 414 (5:40)
08. Saul, Saul, was verfolgst du mich, SWV 415 (2:53)
09. Herr, wie lang willst du mein so gar vergessen, SWV 416 (6:28)
10. Komm, heiliger Geist, Herre Gott, SWV 417 (6:42)
11. Nun danket alle Gott, SWV 418 (6:05)

Лог создания рипа

Exact Audio Copy V1.0 beta 1 from 15. November 2010
EAC extraction logfile from 18. May 2011, 18:36
Cantus Colln, Concerto Palatino / Heinrich Schutz - Symphoniae Sacrae III, CD2of2
Used drive : HL-DT-STDVDRAM GSA-H62N Adapter: 2 ID: 1
Read mode : Secure
Utilize accurate stream : Yes
Defeat audio cache : Yes
Make use of C2 pointers : No
Read offset correction : 667
Overread into Lead-In and Lead-Out : No
Fill up missing offset samples with silence : Yes
Delete leading and trailing silent blocks : No
Null samples used in CRC calculations : Yes
Used interface : Installed external ASPI interface
Gap handling : Appended to previous track
Used output format : User Defined Encoder
Selected bitrate : 256 kBit/s
Quality : High
Add ID3 tag : No
Command line compressor : C:\Program Files\Exact Audio Copy\Flac\flac.exe
Additional command line options : -8 -V -T "ARTIST=%a" -T "TITLE=%t" -T "ALBUM=%g" -T "DATE=%y" -T "TRACKNUMBER=%n" -T "TOTALTRACKS=%x" -T "GENRE=%m" -T "ALBUMARTIST=%v" -T "ALBUM ARTIST=%v" -T "COMMENT=EAC Secure Mode, Test & Copy, AccurateRip, FLAC -8" %s
TOC of the extracted CD
Track | Start | Length | Start sector | End sector
---------------------------------------------------------
1 | 0:00.00 | 9:14.67 | 0 | 41616
2 | 9:14.67 | 8:07.60 | 41617 | 78201
3 | 17:22.52 | 6:00.00 | 78202 | 105201
4 | 23:22.52 | 5:25.19 | 105202 | 129595
5 | 28:47.71 | 6:26.51 | 129596 | 158596
6 | 35:14.47 | 6:37.61 | 158597 | 188432
7 | 41:52.33 | 5:40.08 | 188433 | 213940
8 | 47:32.41 | 2:52.58 | 213941 | 226898
9 | 50:25.24 | 6:27.74 | 226899 | 255997
10 | 56:53.23 | 6:42.33 | 255998 | 286180
11 | 63:35.56 | 6:05.10 | 286181 | 313565
Track 1
Filename G:\Heinrich Schutz - Symphoniae Sacrae III (2005) [FLAC] (2CDs)\Disc 2of2\01 - Es ging ein Samann aus, SWF 408.wav
Pre-gap length 0:00:02.00
Peak level 90.6 %
Extraction speed 2.9 X
Track quality 99.9 %
Test CRC F15CECDF
Copy CRC F15CECDF
Accurately ripped (confidence 3) [0B85EDEA]
Copy OK
Track 2
Filename G:\Heinrich Schutz - Symphoniae Sacrae III (2005) [FLAC] (2CDs)\Disc 2of2\02 - Seid barmherzig, SWV 409.wav
Pre-gap length 0:00:04.09
Peak level 84.6 %
Extraction speed 2.9 X
Track quality 99.9 %
Test CRC ECFEB73D
Copy CRC ECFEB73D
Accurately ripped (confidence 3) [2C8AF077]
Copy OK
Track 3
Filename G:\Heinrich Schutz - Symphoniae Sacrae III (2005) [FLAC] (2CDs)\Disc 2of2\03 - Siehe, dieser wird gesetzt zu einem Fall, SWV 410.wav
Pre-gap length 0:00:06.74
Peak level 97.1 %
Extraction speed 3.1 X
Track quality 100.0 %
Test CRC F221EBEE
Copy CRC F221EBEE
Accurately ripped (confidence 3) [05CB379D]
Copy OK
Track 4
Filename G:\Heinrich Schutz - Symphoniae Sacrae III (2005) [FLAC] (2CDs)\Disc 2of2\04 - Vater unser, SWV 411.wav
Pre-gap length 0:00:07.15
Peak level 99.3 %
Extraction speed 3.0 X
Track quality 100.0 %
Test CRC 9300BEFD
Copy CRC 9300BEFD
Accurately ripped (confidence 3) [AAEE8EDC]
Copy OK
Track 5
Filename G:\Heinrich Schutz - Symphoniae Sacrae III (2005) [FLAC] (2CDs)\Disc 2of2\05 - Siehe, wie fein und lieblich, SWV 412.wav
Pre-gap length 0:00:06.74
Peak level 98.9 %
Extraction speed 3.1 X
Track quality 100.0 %
Test CRC 4B60E618
Copy CRC 4B60E618
Accurately ripped (confidence 3) [9343CE52]
Copy OK
Track 6
Filename G:\Heinrich Schutz - Symphoniae Sacrae III (2005) [FLAC] (2CDs)\Disc 2of2\06 - Hutet Euch, SWV 413.wav
Pre-gap length 0:00:08.14
Peak level 99.5 %
Extraction speed 2.9 X
Track quality 99.9 %
Test CRC 407DACE9
Copy CRC 407DACE9
Accurately ripped (confidence 3) [D2A1946A]
Copy OK
Track 7
Filename G:\Heinrich Schutz - Symphoniae Sacrae III (2005) [FLAC] (2CDs)\Disc 2of2\07 - Meister, wir wissen, dass du wahrhaftig bist, SWV 414.wav
Pre-gap length 0:00:06.73
Peak level 99.8 %
Extraction speed 3.1 X
Track quality 100.0 %
Test CRC E17C8398
Copy CRC E17C8398
Accurately ripped (confidence 3) [5F7F568F]
Copy OK
Track 8
Filename G:\Heinrich Schutz - Symphoniae Sacrae III (2005) [FLAC] (2CDs)\Disc 2of2\08 - Saul, Saul, was verfolgst du mich, SWV 415.wav
Pre-gap length 0:00:06.74
Peak level 100.0 %
Extraction speed 2.8 X
Track quality 100.0 %
Test CRC EEDA56D0
Copy CRC EEDA56D0
Accurately ripped (confidence 3) [4D39D6A2]
Copy OK
Track 9
Filename G:\Heinrich Schutz - Symphoniae Sacrae III (2005) [FLAC] (2CDs)\Disc 2of2\09 - Herr, wie lang willst du mein so gar vergessen, SWV 416.wav
Pre-gap length 0:00:08.72
Peak level 94.2 %
Extraction speed 3.1 X
Track quality 100.0 %
Test CRC FB37ADB4
Copy CRC FB37ADB4
Accurately ripped (confidence 3) [44B21D7C]
Copy OK
Track 10
Filename G:\Heinrich Schutz - Symphoniae Sacrae III (2005) [FLAC] (2CDs)\Disc 2of2\10 - Komm, heiliger Geist, Herre Gott, SWV 417.wav
Pre-gap length 0:00:06.74
Peak level 99.8 %
Extraction speed 2.8 X
Track quality 99.9 %
Test CRC 5CF776B8
Copy CRC 5CF776B8
Accurately ripped (confidence 3) [26B548E7]
Copy OK
Track 11
Filename G:\Heinrich Schutz - Symphoniae Sacrae III (2005) [FLAC] (2CDs)\Disc 2of2\11 - Nun danket alle Gott, SWV 418.wav
Pre-gap length 0:00:05.19
Peak level 99.1 %
Extraction speed 3.0 X
Track quality 100.0 %
Test CRC 8E7991B2
Copy CRC 8E7991B2
Accurately ripped (confidence 3) [960B427E]
Copy OK
All tracks accurately ripped
No errors occurred
End of status report
==== Log checksum 74647C4CCA74B5EDB65DB1254952A5C09E9DCD8DDC7264596D980F438883F520 ====

Содержание индексной карты (.CUE)

REM DATE 2005
REM DISCID 8C10540B
REM COMMENT "ExactAudioCopy v1.0b1"
PERFORMER "Cantus Cölln · Concerto Palatino"
TITLE "Symphoniæ sacræ III"
FILE "01. Es ging ein Sämann aus, SWV 408.wav" WAVE
TRACK 01 AUDIO
TITLE "Es ging ein Sämann aus, SWV 408"
PERFORMER "Cantus Cölln · Concerto Palatino"
INDEX 01 00:00:00
TRACK 02 AUDIO
TITLE "Seid barmherzig, SWV 409"
PERFORMER "Cantus Cölln · Concerto Palatino"
INDEX 00 09:10:58
FILE "02. Seid barmherzig, SWV 409.wav" WAVE
INDEX 01 00:00:00
TRACK 03 AUDIO
TITLE "Siehe, dieser wird gesetzt zu einem Fall, SWV 410"
PERFORMER "Cantus Cölln · Concerto Palatino"
INDEX 00 08:00:61
FILE "03. Siehe, dieser wird gesetzt zu einem Fall, SWV 410.wav" WAVE
INDEX 01 00:00:00
TRACK 04 AUDIO
TITLE "Vater unser, SWV 411"
PERFORMER "Cantus Cölln · Concerto Palatino"
INDEX 00 05:52:60
FILE "04. Vater unser, SWV 411.wav" WAVE
INDEX 01 00:00:00
TRACK 05 AUDIO
TITLE "Siehe, wie fein und lieblich, SWV 412"
PERFORMER "Cantus Cölln · Concerto Palatino"
INDEX 00 05:18:20
FILE "05. Siehe, wie fein und lieblich, SWV 412.wav" WAVE
INDEX 01 00:00:00
TRACK 06 AUDIO
TITLE "Hütet Euch, SWV 413"
PERFORMER "Cantus Cölln · Concerto Palatino"
INDEX 00 06:18:37
FILE "06. Hütet Euch, SWV 413.wav" WAVE
INDEX 01 00:00:00
TRACK 07 AUDIO
TITLE "Meister, wir wissen, daß du wahrhaftig bist, SWV 414"
PERFORMER "Cantus Cölln · Concerto Palatino"
INDEX 00 06:30:63
FILE "07. Meister, wir wissen, daß du wahrhaftig bist, SWV 414.wav" WAVE
INDEX 01 00:00:00
TRACK 08 AUDIO
TITLE "Saul, Saul, was verfolgst du mich, SWV 415"
PERFORMER "Cantus Cölln · Concerto Palatino"
INDEX 00 05:33:09
FILE "08. Saul, Saul, was verfolgst du mich, SWV 415.wav" WAVE
INDEX 01 00:00:00
TRACK 09 AUDIO
TITLE "Herr, wie lang willst du mein so gar vergessen, SWV 416"
PERFORMER "Cantus Cölln · Concerto Palatino"
INDEX 00 02:43:61
FILE "09. Herr, wie lang willst du mein so gar vergessen, SWV 416.wav" WAVE
INDEX 01 00:00:00
TRACK 10 AUDIO
TITLE "Komm, heiliger Geist, Herre Gott, SWV 417"
PERFORMER "Cantus Cölln · Concerto Palatino"
INDEX 00 06:21:00
FILE "10. Komm, heiliger Geist, Herre Gott, SWV 417.wav" WAVE
INDEX 01 00:00:00
TRACK 11 AUDIO
TITLE "Nun danket alle Gott, SWV 418"
PERFORMER "Cantus Cölln · Concerto Palatino"
INDEX 00 06:37:14
FILE "11. Nun danket alle Gott, SWV 418.wav" WAVE
INDEX 01 00:00:00
[teatrix.ru].t22089.torrent 
Торрент: Зарегистрирован [ 2016-03-20 12:44 ] · 91922B675DF96B40C20A2238323BE8CC2E7A93

Скачать .torrent

Скачать

14 KB

Статус: проверено
Скачан: 1 раз
Размер: 564 MB
terms.php



Быстрый ответ

Имя:

      
Для отправки сообщений необходимо включить JavaScript
Показать сообщения:    

Текущее время: 08-Дек 03:14

Часовой пояс: UTC + 3


Вы можете начинать темы
Вы можете отвечать на сообщения
Вы не можете редактировать свои сообщения
Вы не можете удалять свои сообщения
Вы не можете голосовать в опросах
Вы не можете прикреплять файлы к сообщениям
Вы можете скачивать файлы