Георгий Данелия. Великий обманщик. (Марина Исаева) [22.08.2015, Документальный, TVRip-AVC]


Статистика раздачи [Обновить пиров]
Размер:  378 MB   |    Зарегистрирован:  8 месяцев 19 дней   |    Скачан:  1 раз

Полного источника не было: 4 месяца

 
   
 
 
 

[Цитировать]

Георгий Данелия. Великий обманщик.
Дата/Год выпуска: 22.08.2015
Страна: Россия
Жанр: Документальный
Продолжительность: 00:39:15
Перевод: Не требуется
Русские субтитры: нет
Режиссёр: Марина Исаева
Оригинальная аудиодорожка: русский
Телеканал: ТВ Центр
Описание: Он никогда не обременял себя сомнениями, будет ли его фильм интересен зрителям. Его не волновали ни мода, ни социальный заказ… Всю жизнь Георгий Данелия снимал только такое кино, которое хотел бы смотреть сам… А получилось, что все его семнадцать картин стали классикой отечественного кинематографа и до сих пор любимы зрителями. Все его фильмы, по сути, трагичны, а мы считаем их комедиями. И в этом главная загадка искусства режиссёра. Он обманул зрителей, заставив нас плакать, и при этом думать, что мы утираем слёзы от смеха. Поистине настоящая ирония великого обманщика! "Мимино", "Афоня", "Осенний марафон", "Кин-дза-дза". Он никогда ни в чём не повторялся, и всё же был всегда узнаваем. Актёры, хоть раз снявшиеся у Данелия, признаются, что после этого режиссёра им было трудно работать с другими – настолько велико обаяние уникального дара Георгия Николаевича.
Доп. информация: Участники: Евгений Примаков, Юрий Рост, Нани Брегвадзе, Никита Михалков, Вахтанг Кикабидзе, Ирина Скобцева, Олег Басилашвили, Лев Дуров, Евгения Симонова, Полина Кутепова.
качество: TVRip
формат: MP4
Видео: h264, 704x396, 1.78:1, 1298 Kbps, 25.00fps
Аудио: aac, 128 Kbps, 44.1 KHz, 2 ch

MediaInfo

General
Complete name : C:\Users\Àðòóð\Videos\Ãåîðãèé Äàíåëèÿ.Âåëèêèé îáìàíùèê(1).mp4
Format : MPEG-4
Format profile : Base Media
Codec ID : isom
File size : 378 MiB
Duration : 39mn 15s
Overall bit rate : 1 346 Kbps
Encoded date : UTC 2015-08-25 06:44:53
Tagged date : UTC 2015-08-25 06:44:53
Writing application : Lavf51.12.1
Video
ID : 1
Format : AVC
Format/Info : Advanced Video Codec
Format profile : Baseline@L1.3
Format settings, CABAC : No
Format settings, ReFrames : 1 frame
Codec ID : avc1
Codec ID/Info : Advanced Video Coding
Duration : 39mn 15s
Bit rate mode : Variable
Bit rate : 1 214 Kbps
Width : 704 pixels
Height : 396 pixels
Display aspect ratio : 16:9
Frame rate mode : Constant
Frame rate : 25.000 fps
Color space : YUV
Chroma subsampling : 4:2:0
Bit depth : 8 bits
Scan type : Progressive
Bits/(Pixel*Frame) : 0.174
Stream size : 341 MiB (90%)
Language : English
Encoded date : UTC 2015-08-25 06:44:53
Tagged date : UTC 2015-08-25 06:44:53
Audio
ID : 2
Format : AAC
Format/Info : Advanced Audio Codec
Format profile : LC
Codec ID : 40
Duration : 39mn 15s
Bit rate mode : Variable
Bit rate : 128 Kbps
Channel(s) : 2 channels
Channel positions : Front: L R
Sampling rate : 44.1 KHz
Compression mode : Lossy
Stream size : 35.9 MiB (9%)
Language : Russian
Encoded date : UTC 2015-08-25 06:44:53
Tagged date : UTC 2015-08-25 06:44:53

Скриншоты

[teatrix.ru].t22090.torrent 
Торрент: Зарегистрирован [ 2016-03-20 12:44 ] · 6A0126FC8A6F99E5FC859B91725243E487102436

Скачать .torrent

Скачать

15 KB

Статус: проверено
Скачан: 1 раз
Размер: 378 MB
terms.php



Быстрый ответ

Имя:

      
Для отправки сообщений необходимо включить JavaScript
Показать сообщения:    

Текущее время: 08-Дек 17:22

Часовой пояс: UTC + 3


Вы можете начинать темы
Вы можете отвечать на сообщения
Вы не можете редактировать свои сообщения
Вы не можете удалять свои сообщения
Вы не можете голосовать в опросах
Вы не можете прикреплять файлы к сообщениям
Вы можете скачивать файлы