(classical, vocal) Franz Schubert - Die Schone Mullerin (Прекрасная мельничиха); Peter Schreier - tenor, Konrad Ragossnig - guitar - [2004], 1980 APE (image+.cue) lossless


 

[Цитировать]

Franz Schubert - Die schöne Müllerin; Peter Schreier, Konrad Ragossnig
Жанр: classical, vocal
Страна-производитель диска: Germany
Год издания диска: 2004
Издатель (лейбл): BERLIN Classics
Номер по каталогу: 0032822BC
Дата записи: 1980
Аудиокодек: APE
Тип рипа: image+.cue
Битрейт аудио: lossless
Продолжительность: 1:01:34
Источник: собственный рип
Наличие сканов в содержимом раздачи: да
Треклист:
1. Das Wandern
2. Wohin?
3. Halt!
4. Danksagung An Den Bach
5. Am Feierabend
6. Der Neugierige
7. Ungeduld
8. Morgengruß
9. Des Müllers Blumen
10. Tränenregen
11. Mein!
12. Pause
13. Mit Dem Grünen Lautenbande
14. Der Jäger
15. Eifersucht Und Stolz
16. Die Liebe Farbe
17. Die Böse Farbe
18. Trockne Blumen
19. Der Müller Und Der Bach
20. Des Baches Wiegenlied
Исполнители:
Peter Schreier, tenor
Konrad Ragossnig, guitar

Лог создания рипа

Exact Audio Copy V1.0 beta 3 from 29. August 2011
EAC extraction logfile from 25. August 2015, 11:07
Schubert, F. - Peter Schreier / Die schöne Müllerin
Used drive : Optiarc DVD RW AD-7283S Adapter: 0 ID: 2
Read mode : Secure
Utilize accurate stream : Yes
Defeat audio cache : Yes
Make use of C2 pointers : No
Read offset correction : 48
Overread into Lead-In and Lead-Out : No
Fill up missing offset samples with silence : Yes
Delete leading and trailing silent blocks : No
Null samples used in CRC calculations : Yes
Used interface : Native Win32 interface for Win NT & 2000
Used output format : Monkey's Audio Lossless Encoder
Selected bitrate : Extra High Lossless Compression
Quality : High
Add ID3 tag : Yes
Command line compressor : C:\Program Files\Monkey's Audio\MAC.exe
TOC of the extracted CD
Track | Start | Length | Start sector | End sector
---------------------------------------------------------
1 | 0:00.00 | 3:05.57 | 0 | 13931
2 | 3:05.57 | 2:19.43 | 13932 | 24399
3 | 5:25.25 | 1:47.17 | 24400 | 32441
4 | 7:12.42 | 2:21.20 | 32442 | 43036
5 | 9:33.62 | 2:44.60 | 43037 | 55396
6 | 12:18.47 | 4:00.43 | 55397 | 73439
7 | 16:19.15 | 3:01.50 | 73440 | 87064
8 | 19:20.65 | 4:09.70 | 87065 | 105809
9 | 23:30.60 | 3:13.65 | 105810 | 120349
10 | 26:44.50 | 4:30.00 | 120350 | 140599
11 | 31:14.50 | 2:59.07 | 140600 | 154031
12 | 34:13.57 | 4:14.10 | 154032 | 173091
13 | 38:27.67 | 2:22.55 | 173092 | 183796
14 | 40:50.47 | 1:22.70 | 183797 | 190016
15 | 42:13.42 | 1:59.30 | 190017 | 198971
16 | 44:12.72 | 4:29.45 | 198972 | 219191
17 | 48:42.42 | 2:17.13 | 219192 | 229479
18 | 50:59.55 | 3:41.05 | 229480 | 246059
19 | 54:40.60 | 3:31.60 | 246060 | 261944
20 | 58:12.45 | 6:20.70 | 261945 | 290514
Range status and errors
Selected range
Filename D:\WORK\Schubert - Die schone Mullerin - Schreier - Ragossnig (1980)\Schubert, F. - Peter Schreier - Die schöne Müllerin.wav
Peak level 98.1 %
Extraction speed 4.2 X
Range quality 100.0 %
Copy CRC FC062E07
Copy OK
No errors occurred
AccurateRip summary
Track 1 accurately ripped (confidence 3) [79C91A25] (AR v2)
Track 2 accurately ripped (confidence 3) [B1EFAAF4] (AR v2)
Track 3 accurately ripped (confidence 3) [D1CC6185] (AR v2)
Track 4 accurately ripped (confidence 3) [292252C4] (AR v2)
Track 5 accurately ripped (confidence 3) [CF85337A] (AR v2)
Track 6 accurately ripped (confidence 3) [D31719E5] (AR v2)
Track 7 accurately ripped (confidence 3) [4C05C352] (AR v2)
Track 8 accurately ripped (confidence 3) [188F4471] (AR v2)
Track 9 accurately ripped (confidence 3) [9A36464F] (AR v2)
Track 10 accurately ripped (confidence 3) [3CB169B1] (AR v2)
Track 11 accurately ripped (confidence 3) [471F221F] (AR v2)
Track 12 accurately ripped (confidence 3) [6EBB4AFB] (AR v2)
Track 13 accurately ripped (confidence 3) [E5E53B28] (AR v2)
Track 14 accurately ripped (confidence 3) [55F3F0D2] (AR v2)
Track 15 accurately ripped (confidence 3) [9B6FEEFE] (AR v2)
Track 16 accurately ripped (confidence 3) [0997C3A1] (AR v2)
Track 17 accurately ripped (confidence 3) [0407AD52] (AR v2)
Track 18 accurately ripped (confidence 3) [0D461396] (AR v2)
Track 19 accurately ripped (confidence 3) [B16A82EE] (AR v2)
Track 20 accurately ripped (confidence 3) [A2BBF98F] (AR v2)
All tracks accurately ripped
End of status report

Лог проверки качества

AUDIOCHECKER v2.0 beta (build 457) - by Dester - opdester@freemail.hu
~~~~~~~~~~~~~~~~~~~~~~~~~~~~~~~~~~
-=== DO NOT EDIT THIS FILE! ===-
Path: ...\Schubert - Die schone Mullerin - Schreier - Ragossnig (1980)
1 -=- Schubert, F. - Peter Schreier - Die schone Mullerin.ape -=- CDDA (100%)
20910372

Скриншот спектра частот

Доп. информация:
Words: Wilhelm Müller
Arrangement: Konrad Ragossnig & John W. Duarte
Recorded: Dresden, Lukaskirche 1980



Показать сообщения:    

Текущее время: 11-Дек 14:53

Часовой пояс: UTC + 3


Вы не можете начинать темы
Вы не можете отвечать на сообщения
Вы не можете редактировать свои сообщения
Вы не можете удалять свои сообщения
Вы не можете голосовать в опросах
Вы не можете прикреплять файлы к сообщениям
Вы не можете скачивать файлы