(Opera) Giuseppe Verdi - Aroldo / Джузеппе Верди - Арольдо (Arturo Basile; Maria Vitale, Rolando Panerai, Vasco Campagnano, Gianfelice De Manuelli), 1951 - Studio of RAI Torino / FLAC (tracks+.cue), lossless


 

[Цитировать]

Giuseppe Verdi - Aroldo / Джузеппе Верди - Арольдо (Arturo Basile; Maria Vitale, Rolando Panerai, Vasco Campagnano, Gianfelice De Manuelli)
Жанр: Opera
Страна-производитель диска: Италия
Год издания диска: 2001
Издатель (лейбл): Istituto Discografico Italiano
Дата записи: 1951
Аудиокодек: FLAC
Тип рипа: tracks+.cue
Битрейт аудио: lossless
Продолжительность: 107:12
Источник: релизер (Guillermo)
Исполнители:
Mina - Maria Vitale,
Egberto - Rolando Panerai,
Aroldo - Vasco Campagnano,
Briano - Gianfelice De Manuelli,
Godvino - Aldo Bertocci,
Enrico - Tommaso Soley,
Elena - Miti Truccato Pace.
Conductor - Arturo Basile,
Orchestra and Chorus of RAI Torino.
Recorded at Studio of RAI Torino, October 24, 1951.

Лог создания рипаЛог создания рипа СD 1

Exact Audio Copy V1.0 beta 3 from 29. August 2011
EAC extraction logfile from 21. August 2015, 12:10
Artista desconocido / Título desconocido
Used drive : HL-DT-STDVDRAM GH24NSC0 Adapter: 3 ID: 0
Read mode : Secure
Utilize accurate stream : Yes
Defeat audio cache : Yes
Make use of C2 pointers : No
Read offset correction : 6
Overread into Lead-In and Lead-Out : No
Fill up missing offset samples with silence : Yes
Delete leading and trailing silent blocks : No
Null samples used in CRC calculations : Yes
Used interface : Native Win32 interface for Win NT & 2000
Gap handling : Appended to previous track
Used output format : User Defined Encoder
Selected bitrate : 768 kBit/s
Quality : High
Add ID3 tag : No
Command line compressor : C:\Program Files (x86)\Exact Audio Copy\FLAC\FLAC.EXE
Additional command line options : -8 -V -T "ARTIST=%artist%" -T "TITLE=%title%" -T "ALBUM=%albumtitle%" -T "DATE=%year%" -T "TRACKNUMBER=%tracknr%" -T "GENRE=%genre%" -T "PERFORMER=%albuminterpret%" -T "COMPOSER=%composer%" %haslyrics%--tag-from-file=LYRICS="%lyricsfile%"%haslyrics% -T "ALBUMARTIST=%albumartist%" -T "DISCNUMBER=%cdnumber%" -T "TOTALDISCS=%totalcds%" -T "TOTALTRACKS=%numtracks%" -T "COMMENT=%comment%" %source% -o %dest%
TOC of the extracted CD
Track | Start | Length | Start sector | End sector
---------------------------------------------------------
1 | 0:00.00 | 8:53.47 | 0 | 40021
2 | 8:53.47 | 1:35.53 | 40022 | 47199
3 | 10:29.25 | 3:03.27 | 47200 | 60951
4 | 13:32.52 | 1:46.30 | 60952 | 68931
5 | 15:19.07 | 1:54.33 | 68932 | 77514
6 | 17:13.40 | 3:45.02 | 77515 | 94391
7 | 20:58.42 | 1:45.05 | 94392 | 102271
8 | 22:43.47 | 1:08.68 | 102272 | 107439
9 | 23:52.40 | 2:56.27 | 107440 | 120666
10 | 26:48.67 | 2:10.33 | 120667 | 130449
11 | 28:59.25 | 0:39.22 | 130450 | 133396
12 | 29:38.47 | 2:50.43 | 133397 | 146189
13 | 32:29.15 | 0:57.52 | 146190 | 150516
14 | 33:26.67 | 2:15.73 | 150517 | 160714
15 | 35:42.65 | 3:41.22 | 160715 | 177311
16 | 39:24.12 | 2:03.48 | 177312 | 186584
17 | 41:27.60 | 4:46.27 | 186585 | 208061
18 | 46:14.12 | 2:31.40 | 208062 | 219426
19 | 48:45.52 | 1:02.35 | 219427 | 224111
20 | 49:48.12 | 1:53.45 | 224112 | 232631
21 | 51:41.57 | 4:47.00 | 232632 | 254156
22 | 56:28.57 | 3:10.55 | 254157 | 268461
23 | 59:39.37 | 0:59.08 | 268462 | 272894
24 | 60:38.45 | 4:32.55 | 272895 | 293349
Track 1
Filename f:\Users\Guillermo\Desktop\EAC convertidos\01 Pista01.wav
Pre-gap length 0:00:02.00
Peak level 67.0 %
Extraction speed 1.7 X
Track quality 100.0 %
Test CRC 309A1C03
Copy CRC 309A1C03
Copy OK
Track 2
Filename f:\Users\Guillermo\Desktop\EAC convertidos\02 Pista02.wav
Peak level 52.9 %
Extraction speed 1.3 X
Track quality 100.0 %
Test CRC DC0A1EAB
Copy CRC DC0A1EAB
Copy OK
Track 3
Filename f:\Users\Guillermo\Desktop\EAC convertidos\03 Pista03.wav
Peak level 70.2 %
Extraction speed 1.7 X
Track quality 100.0 %
Test CRC 16319F38
Copy CRC 16319F38
Copy OK
Track 4
Filename f:\Users\Guillermo\Desktop\EAC convertidos\04 Pista04.wav
Peak level 55.4 %
Extraction speed 1.5 X
Track quality 100.0 %
Test CRC D2C46B89
Copy CRC D2C46B89
Copy OK
Track 5
Filename f:\Users\Guillermo\Desktop\EAC convertidos\05 Pista05.wav
Peak level 57.6 %
Extraction speed 1.6 X
Track quality 100.0 %
Test CRC 9C29BDB2
Copy CRC 9C29BDB2
Copy OK
Track 6
Filename f:\Users\Guillermo\Desktop\EAC convertidos\06 Pista06.wav
Peak level 61.0 %
Extraction speed 2.0 X
Track quality 100.0 %
Test CRC 3781287B
Copy CRC 3781287B
Copy OK
Track 7
Filename f:\Users\Guillermo\Desktop\EAC convertidos\07 Pista07.wav
Peak level 51.1 %
Extraction speed 1.7 X
Track quality 100.0 %
Test CRC C6BE534B
Copy CRC C6BE534B
Copy OK
Track 8
Filename f:\Users\Guillermo\Desktop\EAC convertidos\08 Pista08.wav
Peak level 73.5 %
Extraction speed 1.4 X
Track quality 100.0 %
Test CRC 2141C839
Copy CRC 2141C839
Copy OK
Track 9
Filename f:\Users\Guillermo\Desktop\EAC convertidos\09 Pista09.wav
Peak level 74.6 %
Extraction speed 2.0 X
Track quality 100.0 %
Test CRC 2E4CD0F0
Copy CRC 2E4CD0F0
Copy OK
Track 10
Filename f:\Users\Guillermo\Desktop\EAC convertidos\10 Pista10.wav
Peak level 99.9 %
Extraction speed 1.9 X
Track quality 100.0 %
Test CRC 8A3C3A9E
Copy CRC 8A3C3A9E
Copy OK
Track 11
Filename f:\Users\Guillermo\Desktop\EAC convertidos\11 Pista11.wav
Peak level 61.8 %
Extraction speed 1.1 X
Track quality 100.0 %
Test CRC 5EF6D8AD
Copy CRC 5EF6D8AD
Copy OK
Track 12
Filename f:\Users\Guillermo\Desktop\EAC convertidos\12 Pista12.wav
Peak level 81.1 %
Extraction speed 2.2 X
Track quality 100.0 %
Test CRC 1CC59785
Copy CRC 1CC59785
Copy OK
Track 13
Filename f:\Users\Guillermo\Desktop\EAC convertidos\13 Pista13.wav
Peak level 70.5 %
Extraction speed 1.0 X
Track quality 99.6 %
Test CRC DC0C2327
Copy CRC DC0C2327
Copy OK
Track 14
Filename f:\Users\Guillermo\Desktop\EAC convertidos\14 Pista14.wav
Peak level 77.4 %
Extraction speed 2.1 X
Track quality 100.0 %
Test CRC A2171545
Copy CRC A2171545
Copy OK
Track 15
Filename f:\Users\Guillermo\Desktop\EAC convertidos\15 Pista15.wav
Peak level 77.0 %
Extraction speed 2.5 X
Track quality 100.0 %
Test CRC 6D6F1047
Copy CRC 6D6F1047
Copy OK
Track 16
Filename f:\Users\Guillermo\Desktop\EAC convertidos\16 Pista16.wav
Peak level 73.5 %
Extraction speed 1.7 X
Track quality 99.8 %
Test CRC B5BBCC30
Copy CRC B5BBCC30
Copy OK
Track 17
Filename f:\Users\Guillermo\Desktop\EAC convertidos\17 Pista17.wav
Peak level 79.9 %
Extraction speed 2.7 X
Track quality 100.0 %
Test CRC F9CC82BE
Copy CRC F9CC82BE
Copy OK
Track 18
Filename f:\Users\Guillermo\Desktop\EAC convertidos\18 Pista18.wav
Peak level 74.5 %
Extraction speed 2.5 X
Track quality 100.0 %
Test CRC 567E75C1
Copy CRC 567E75C1
Copy OK
Track 19
Filename f:\Users\Guillermo\Desktop\EAC convertidos\19 Pista19.wav
Peak level 66.2 %
Extraction speed 1.2 X
Track quality 99.6 %
Test CRC EF573B36
Copy CRC EF573B36
Copy OK
Track 20
Filename f:\Users\Guillermo\Desktop\EAC convertidos\20 Pista20.wav
Peak level 66.8 %
Extraction speed 2.3 X
Track quality 100.0 %
Test CRC 45B31078
Copy CRC 45B31078
Copy OK
Track 21
Filename f:\Users\Guillermo\Desktop\EAC convertidos\21 Pista21.wav
Peak level 86.2 %
Extraction speed 3.0 X
Track quality 100.0 %
Test CRC 4F32FBD8
Copy CRC 4F32FBD8
Copy OK
Track 22
Filename f:\Users\Guillermo\Desktop\EAC convertidos\22 Pista22.wav
Peak level 89.7 %
Extraction speed 2.8 X
Track quality 100.0 %
Test CRC 944A44D2
Copy CRC 944A44D2
Copy OK
Track 23
Filename f:\Users\Guillermo\Desktop\EAC convertidos\23 Pista23.wav
Peak level 86.0 %
Extraction speed 1.8 X
Track quality 100.0 %
Test CRC 9F5BCF99
Copy CRC 9F5BCF99
Copy OK
Track 24
Filename f:\Users\Guillermo\Desktop\EAC convertidos\24 Pista24.wav
Peak level 99.9 %
Extraction speed 3.1 X
Track quality 100.0 %
Test CRC AC7AC68C
Copy CRC AC7AC68C
Copy OK
No errors occurred
End of status report
==== Log checksum E17E73D4412B00381B529B762B2DDAB9C3E97A44B6D3BA91CCDA98CA3989B62E ====

Лог создания рипа CD 2

Exact Audio Copy V1.0 beta 3 from 29. August 2011
EAC extraction logfile from 21. August 2015, 13:00
Artista desconocido / Título desconocido
Used drive : HL-DT-STDVDRAM GH24NSC0 Adapter: 3 ID: 0
Read mode : Secure
Utilize accurate stream : Yes
Defeat audio cache : Yes
Make use of C2 pointers : No
Read offset correction : 6
Overread into Lead-In and Lead-Out : No
Fill up missing offset samples with silence : Yes
Delete leading and trailing silent blocks : No
Null samples used in CRC calculations : Yes
Used interface : Native Win32 interface for Win NT & 2000
Gap handling : Appended to previous track
Used output format : User Defined Encoder
Selected bitrate : 768 kBit/s
Quality : High
Add ID3 tag : No
Command line compressor : C:\Program Files (x86)\Exact Audio Copy\FLAC\FLAC.EXE
Additional command line options : -8 -V -T "ARTIST=%artist%" -T "TITLE=%title%" -T "ALBUM=%albumtitle%" -T "DATE=%year%" -T "TRACKNUMBER=%tracknr%" -T "GENRE=%genre%" -T "PERFORMER=%albuminterpret%" -T "COMPOSER=%composer%" %haslyrics%--tag-from-file=LYRICS="%lyricsfile%"%haslyrics% -T "ALBUMARTIST=%albumartist%" -T "DISCNUMBER=%cdnumber%" -T "TOTALDISCS=%totalcds%" -T "TOTALTRACKS=%numtracks%" -T "COMMENT=%comment%" %source% -o %dest%
TOC of the extracted CD
Track | Start | Length | Start sector | End sector
---------------------------------------------------------
1 | 0:00.00 | 3:00.32 | 0 | 13531
2 | 3:00.32 | 4:14.60 | 13532 | 32641
3 | 7:15.17 | 2:02.55 | 32642 | 41846
4 | 9:17.72 | 2:38.67 | 41847 | 53763
5 | 11:56.64 | 4:14.73 | 53764 | 72886
6 | 16:11.62 | 3:23.30 | 72887 | 88141
7 | 19:35.17 | 1:56.60 | 88142 | 96901
8 | 21:32.02 | 2:33.13 | 96902 | 108389
9 | 24:05.15 | 1:24.10 | 108390 | 114699
10 | 25:29.25 | 2:54.55 | 114700 | 127804
11 | 28:24.05 | 4:07.20 | 127805 | 146349
12 | 32:31.25 | 2:13.07 | 146350 | 156331
13 | 34:44.32 | 3:09.45 | 156332 | 170551
14 | 37:54.02 | 3:54.32 | 170552 | 188133
Track 1
Filename f:\Users\Guillermo\Desktop\EAC convertidos\01 Pista01.wav
Pre-gap length 0:00:02.00
Peak level 90.8 %
Extraction speed 1.3 X
Track quality 100.0 %
Test CRC 995AAC85
Copy CRC 995AAC85
Copy OK
Track 2
Filename f:\Users\Guillermo\Desktop\EAC convertidos\02 Pista02.wav
Peak level 89.0 %
Extraction speed 1.6 X
Track quality 100.0 %
Test CRC 4E6C0AA1
Copy CRC 4E6C0AA1
Copy OK
Track 3
Filename f:\Users\Guillermo\Desktop\EAC convertidos\03 Pista03.wav
Peak level 100.0 %
Extraction speed 1.4 X
Track quality 100.0 %
Test CRC 61AB2867
Copy CRC 61AB2867
Copy OK
Track 4
Filename f:\Users\Guillermo\Desktop\EAC convertidos\04 Pista04.wav
Peak level 89.7 %
Extraction speed 1.6 X
Track quality 100.0 %
Test CRC 9F7C4A41
Copy CRC 9F7C4A41
Copy OK
Track 5
Filename f:\Users\Guillermo\Desktop\EAC convertidos\05 Pista05.wav
Peak level 95.4 %
Extraction speed 1.9 X
Track quality 100.0 %
Test CRC 762A7D52
Copy CRC 762A7D52
Copy OK
Track 6
Filename f:\Users\Guillermo\Desktop\EAC convertidos\06 Pista06.wav
Peak level 83.5 %
Extraction speed 2.0 X
Track quality 100.0 %
Test CRC 2815BF97
Copy CRC 2815BF97
Copy OK
Track 7
Filename f:\Users\Guillermo\Desktop\EAC convertidos\07 Pista07.wav
Peak level 72.9 %
Extraction speed 1.7 X
Track quality 100.0 %
Test CRC 3A44FDBE
Copy CRC 3A44FDBE
Copy OK
Track 8
Filename f:\Users\Guillermo\Desktop\EAC convertidos\08 Pista08.wav
Peak level 94.0 %
Extraction speed 2.0 X
Track quality 100.0 %
Test CRC 9EEF6EF8
Copy CRC 9EEF6EF8
Copy OK
Track 9
Filename f:\Users\Guillermo\Desktop\EAC convertidos\09 Pista09.wav
Peak level 88.9 %
Extraction speed 1.2 X
Track quality 99.7 %
Test CRC 1BBDD632
Copy CRC 1BBDD632
Copy OK
Track 10
Filename f:\Users\Guillermo\Desktop\EAC convertidos\10 Pista10.wav
Peak level 74.3 %
Extraction speed 2.1 X
Track quality 100.0 %
Test CRC 2DE55627
Copy CRC 2DE55627
Copy OK
Track 11
Filename f:\Users\Guillermo\Desktop\EAC convertidos\11 Pista11.wav
Peak level 95.8 %
Extraction speed 2.0 X
Track quality 99.9 %
Test CRC 7E4F6BBF
Copy CRC 7E4F6BBF
Copy OK
Track 12
Filename f:\Users\Guillermo\Desktop\EAC convertidos\12 Pista12.wav
Peak level 95.6 %
Extraction speed 2.2 X
Track quality 100.0 %
Test CRC 13ED60CE
Copy CRC 13ED60CE
Copy OK
Track 13
Filename f:\Users\Guillermo\Desktop\EAC convertidos\13 Pista13.wav
Peak level 98.2 %
Extraction speed 2.0 X
Track quality 99.8 %
Test CRC EE84A75F
Copy CRC EE84A75F
Copy OK
Track 14
Filename f:\Users\Guillermo\Desktop\EAC convertidos\14 Pista14.wav
Peak level 99.9 %
Extraction speed 2.6 X
Track quality 100.0 %
Test CRC C40CC39A
Copy CRC C40CC39A
Copy OK
No errors occurred
End of status report
==== Log checksum 97F2A4972E0F55D73568E6244537F99B34AABD9D2F91BC543D9388371A707D8A ====

Содержание индексной карты (.CUE)Содержание индексной карты (.CUE) CD 1

REM DISCID 440F4718
REM COMMENT "ExactAudioCopy v1.0b3"
FILE "01 Pista01.wav" WAVE
TRACK 01 AUDIO
INDEX 01 00:00:00
FILE "02 Pista02.wav" WAVE
TRACK 02 AUDIO
INDEX 01 00:00:00
FILE "03 Pista03.wav" WAVE
TRACK 03 AUDIO
INDEX 01 00:00:00
FILE "04 Pista04.wav" WAVE
TRACK 04 AUDIO
INDEX 01 00:00:00
FILE "05 Pista05.wav" WAVE
TRACK 05 AUDIO
INDEX 01 00:00:00
FILE "06 Pista06.wav" WAVE
TRACK 06 AUDIO
INDEX 01 00:00:00
FILE "07 Pista07.wav" WAVE
TRACK 07 AUDIO
INDEX 01 00:00:00
FILE "08 Pista08.wav" WAVE
TRACK 08 AUDIO
INDEX 01 00:00:00
FILE "09 Pista09.wav" WAVE
TRACK 09 AUDIO
INDEX 01 00:00:00
FILE "10 Pista10.wav" WAVE
TRACK 10 AUDIO
INDEX 01 00:00:00
FILE "11 Pista11.wav" WAVE
TRACK 11 AUDIO
INDEX 01 00:00:00
FILE "12 Pista12.wav" WAVE
TRACK 12 AUDIO
INDEX 01 00:00:00
FILE "13 Pista13.wav" WAVE
TRACK 13 AUDIO
INDEX 01 00:00:00
FILE "14 Pista14.wav" WAVE
TRACK 14 AUDIO
INDEX 01 00:00:00
FILE "15 Pista15.wav" WAVE
TRACK 15 AUDIO
INDEX 01 00:00:00
FILE "16 Pista16.wav" WAVE
TRACK 16 AUDIO
INDEX 01 00:00:00
FILE "17 Pista17.wav" WAVE
TRACK 17 AUDIO
INDEX 01 00:00:00
FILE "18 Pista18.wav" WAVE
TRACK 18 AUDIO
INDEX 01 00:00:00
FILE "19 Pista19.wav" WAVE
TRACK 19 AUDIO
INDEX 01 00:00:00
FILE "20 Pista20.wav" WAVE
TRACK 20 AUDIO
INDEX 01 00:00:00
FILE "21 Pista21.wav" WAVE
TRACK 21 AUDIO
INDEX 01 00:00:00
FILE "22 Pista22.wav" WAVE
TRACK 22 AUDIO
INDEX 01 00:00:00
FILE "23 Pista23.wav" WAVE
TRACK 23 AUDIO
INDEX 01 00:00:00
FILE "24 Pista24.wav" WAVE
TRACK 24 AUDIO
INDEX 01 00:00:00

Содержание индексной карты (.CUE) CD 2

REM DISCID CC09CC0E
REM COMMENT "ExactAudioCopy v1.0b3"
FILE "01 Pista01.wav" WAVE
TRACK 01 AUDIO
INDEX 01 00:00:00
FILE "02 Pista02.wav" WAVE
TRACK 02 AUDIO
INDEX 01 00:00:00
FILE "03 Pista03.wav" WAVE
TRACK 03 AUDIO
INDEX 01 00:00:00
FILE "04 Pista04.wav" WAVE
TRACK 04 AUDIO
INDEX 01 00:00:00
FILE "05 Pista05.wav" WAVE
TRACK 05 AUDIO
INDEX 01 00:00:00
FILE "06 Pista06.wav" WAVE
TRACK 06 AUDIO
INDEX 01 00:00:00
FILE "07 Pista07.wav" WAVE
TRACK 07 AUDIO
INDEX 01 00:00:00
FILE "08 Pista08.wav" WAVE
TRACK 08 AUDIO
INDEX 01 00:00:00
FILE "09 Pista09.wav" WAVE
TRACK 09 AUDIO
INDEX 01 00:00:00
FILE "10 Pista10.wav" WAVE
TRACK 10 AUDIO
INDEX 01 00:00:00
FILE "11 Pista11.wav" WAVE
TRACK 11 AUDIO
INDEX 01 00:00:00
FILE "12 Pista12.wav" WAVE
TRACK 12 AUDIO
INDEX 01 00:00:00
FILE "13 Pista13.wav" WAVE
TRACK 13 AUDIO
INDEX 01 00:00:00
FILE "14 Pista14.wav" WAVE
TRACK 14 AUDIO
INDEX 01 00:00:00

Треклист

Disc 1:
Act I:
1. Sinfonia
2. Tocchiamo! (Chorus)
3. Ciel! Ch'io respiri (Mina)
4. Egli viene (Mina)
5. Sotto il sol di Siria (Aroldo)
6. Ma lagrime ti grondano! (Aroldo)
7. Tosto ei disse! (Mina)
8. Dite che il fallo (Egberto)
9. Ed io pure in faccia (Egberto)
10. Or meco venite (Egberto)
11. O Mina, tu mi sfuggi (Godvino)
12. E' bello di guerra (Chorus)
13. Eterna vivra in Kenth (Egberto)
14. Vi fu in Palestina (Aroldo)
15. Oh, qual m'invade (Tutti)
16. Chi ti salva (Aroldo)
Act II:
17. Oh, cielo! Ove son io? (Mina)
18. Ah, dagli scanni (Mina)
19. Mina! (Godvino)
20. Ah, dal sen di quella tomba (Mina)
21. Io resto (Godvino)
22. Ah! Era vero? (Aroldo)
23. Dessa non e (Egberto)
24. Non punirmi, o Signor (Chorus)
Disc 2:
Act III:
1. Ei fugge! (Egberto)
2. Mina, pensai che un angelo (Egberto)
3. Oh, gioia inesprimibile (Egberto)
4. L'istante s'avvicina (Aroldo)
5. Diviso e il calle (Aroldo)
6. Non allo sposo (Mina)
7. Ah, si, voliamo al tempio (Aroldo)
8. Cade il giorno (Pastori)
9. Cantan felici! (Aroldo)
10. Angiol di Dio (Aroldo)
11. Al lago (Voci)
12. Ah! Piu non reggo (Mina)
13. Ah, da me fuggi (Aroldo)
14. Allora che gli anni (Mina)



Показать сообщения:    

Текущее время: 11-Дек 01:27

Часовой пояс: UTC + 3


Вы не можете начинать темы
Вы не можете отвечать на сообщения
Вы не можете редактировать свои сообщения
Вы не можете удалять свои сообщения
Вы не можете голосовать в опросах
Вы не можете прикреплять файлы к сообщениям
Вы не можете скачивать файлы