(Classical) Clemencic Consort, Rene Clemencic · Carmina Burana (Version Originale – Instruments Anciens) · 1992, FLAC (tracks+.cue) lossless


Статистика раздачи [Обновить пиров]
Размер:  1.14 GB   |    Зарегистрирован:  8 месяцев 17 дней   |    Скачан:  0 раз

Полного источника не было: Никогда

 
   
 
 
 

[Цитировать]

Carmina Burana
Instruments Anciens

Жанр: classical
Страна-производитель диска: France
Год издания диска: 1992
Издатель: Harmonia Mundi
Номер по каталогу: HMA 190336.38
Дата записи: 1975, 1976, 1978
Аудиокодек: FLAC
Тип рипа: tracks+.cue
Битрейт аудио: lossless
Продолжительность: 03:40:33
Источник: скачано с what.cd
Буклет в содержимом раздачи отсутствует
Исполнители:
Clemencic Consort
René Clemencic

CD 1

Carmina gulatorum et potarum
01. Bacche, bene venies I (CB 200) (3:02)
02. Virent prata hiemata (CB 151) (1:50)
03. Nomen a solempnibus I (CB 52) (2:17)
04. Alte clamat Epicurus (CB 211), Nu lebe ich (CB 211a) (7:09)
05. Vite perdite II (CB 31) (1:35)
06. Vacillantis trutine I (CB 108) (4:44)
07. In taberna quando sumus (CB 196) (2:46)
Carmina lusorum (CB 215 et 215a)
08. Introitus: Lugeamus omnes in D (3:05)
09. Epistola: Lectio actuum apopholorum (4:05)
10. Sequentia: Victime novali (4:34)
11. Evangelium: Sequentia falsi evangelii (4:17)
12. Oratio: Omemus! (3:34)
Carmina moralia et divina
13. Dic, Christi veritas (CB 131), Bulla fulminante (CB 131a) (7:56)
14. Licet eger II (CB 8) (5:46)
15. Si vocatus ad nupcias (CB 26,3) (1:58)
16. Nomen a solempnibus II (CB 52) (3:21)
17. Fas et nefas ambulant (CB 19) (1:53)
18. Flete flenda (CB 5) (1:09)
19. Homo qui vigeas (CB 22) (2:37)
20. Procurans odium II (CB 12) (2:56)
21. Crucifigat omnes (CB 47) (3:14)

Лог создания рипа

Exact Audio Copy V1.0 beta 3 from 29. August 2011
EAC extraction logfile from 23. December 2014, 23:51
René Clementic & Clemencic Consort / Carmina Burana Version Originale CD1
Used drive : MATSHITADVD-RAM UJ8C2 S Adapter: 0 ID: 0
Read mode : Secure
Utilize accurate stream : Yes
Defeat audio cache : Yes
Make use of C2 pointers : No
Read offset correction : 103
Overread into Lead-In and Lead-Out : No
Fill up missing offset samples with silence : Yes
Delete leading and trailing silent blocks : No
Null samples used in CRC calculations : Yes
Used interface : Native Win32 interface for Win NT & 2000
Gap handling : Appended to previous track
Used output format : User Defined Encoder
Selected bitrate : 1024 kBit/s
Quality : High
Add ID3 tag : No
Command line compressor : C:\Program Files (x86)\Exact Audio Copy\Flac\flac.exe
Additional command line options : -8 -V -T "ARTIST=%artist%" -T "TITLE=%title%" -T "ALBUM=%albumtitle%" -T "DATE=%year%" -T "TRACKNUMBER=%tracknr%" -T "GENRE=%genre%" -T "PERFORMER=%albuminterpret%" -T "COMPOSER=%composer%" %haslyrics%--tag-from-file=LYRICS="%lyricsfile%"%haslyrics% -T "ALBUMARTIST=%albumartist%" -T "DISCNUMBER=%cdnumber%" -T "TOTALDISCS=%totalcds%" -T "TOTALTRACKS=%numtracks%" -T "COMMENT=%comment%" %source% -o %dest%
TOC of the extracted CD
Track | Start | Length | Start sector | End sector
---------------------------------------------------------
1 | 0:00.32 | 3:02.23 | 32 | 13704
2 | 3:02.55 | 1:50.30 | 13705 | 21984
3 | 4:53.10 | 2:16.52 | 21985 | 32236
4 | 7:09.62 | 7:09.00 | 32237 | 64411
5 | 14:18.62 | 1:34.70 | 64412 | 71531
6 | 15:53.57 | 4:44.33 | 71532 | 92864
7 | 20:38.15 | 2:46.27 | 92865 | 105341
8 | 23:24.42 | 3:04.55 | 105342 | 119196
9 | 26:29.22 | 4:05.28 | 119197 | 137599
10 | 30:34.50 | 4:33.45 | 137600 | 158119
11 | 35:08.20 | 4:16.62 | 158120 | 177381
12 | 39:25.07 | 3:33.45 | 177382 | 193401
13 | 42:58.52 | 7:55.43 | 193402 | 229069
14 | 50:54.20 | 5:46.25 | 229070 | 255044
15 | 56:40.45 | 1:58.15 | 255045 | 263909
16 | 58:38.60 | 3:21.32 | 263910 | 279016
17 | 62:00.17 | 1:53.08 | 279017 | 287499
18 | 63:53.25 | 1:09.32 | 287500 | 292706
19 | 65:02.57 | 2:37.25 | 292707 | 304506
20 | 67:40.07 | 2:56.13 | 304507 | 317719
21 | 70:36.20 | 3:14.17 | 317720 | 332286
Track 1
Filename D:\My Documents\Dropbox\My Music\What.cd project\Clemencic Consort - 1990 - Carmina Burana [FLAC]\CD 1\01 Carmina gulatorum et potarum- Bacche, bene venies I (CB 200).wav
Pre-gap length 0:00:02.42
Peak level 83.5 %
Extraction speed 2.4 X
Track quality 100.0 %
Test CRC 3BBAF7C9
Copy CRC 3BBAF7C9
Accurately ripped (confidence 17) [F1037071] (AR v2)
Copy OK
Track 2
Filename D:\My Documents\Dropbox\My Music\What.cd project\Clemencic Consort - 1990 - Carmina Burana [FLAC]\CD 1\02 Carmina gulatorum et potarum- Virent prata hiemata (CB 151).wav
Pre-gap length 0:00:00.17
Peak level 83.3 %
Extraction speed 2.3 X
Track quality 100.0 %
Test CRC 6CD81C2E
Copy CRC 6CD81C2E
Accurately ripped (confidence 17) [8D9C5157] (AR v2)
Copy OK
Track 3
Filename D:\My Documents\Dropbox\My Music\What.cd project\Clemencic Consort - 1990 - Carmina Burana [FLAC]\CD 1\03 Carmina gulatorum et potarum- Nomen a solempnibus I (CB 52).wav
Peak level 70.4 %
Extraction speed 2.5 X
Track quality 100.0 %
Test CRC 027DC754
Copy CRC 027DC754
Accurately ripped (confidence 17) [76348077] (AR v2)
Copy OK
Track 4
Filename D:\My Documents\Dropbox\My Music\What.cd project\Clemencic Consort - 1990 - Carmina Burana [FLAC]\CD 1\04 Carmina gulatorum et potarum- Alte clamat Epicurus, Nu lebe ich (CB 211, 211a).wav
Pre-gap length 0:00:04.89
Peak level 94.6 %
Extraction speed 3.2 X
Track quality 100.0 %
Test CRC A63D595E
Copy CRC A63D595E
Accurately ripped (confidence 17) [4CBF9BA4] (AR v2)
Copy OK
Track 5
Filename D:\My Documents\Dropbox\My Music\What.cd project\Clemencic Consort - 1990 - Carmina Burana [FLAC]\CD 1\05 Carmina gulatorum et potarum- Vite perdite II (CB 31).wav
Pre-gap length 0:00:00.16
Peak level 95.2 %
Extraction speed 1.5 X
Track quality 99.8 %
Test CRC C33D55E3
Copy CRC C33D55E3
Accurately ripped (confidence 17) [7F6EBA8C] (AR v2)
Copy OK
Track 6
Filename D:\My Documents\Dropbox\My Music\What.cd project\Clemencic Consort - 1990 - Carmina Burana [FLAC]\CD 1\06 Carmina gulatorum et potarum- Vacillantis trutine I (CB 108).wav
Pre-gap length 0:00:00.02
Peak level 37.0 %
Extraction speed 3.4 X
Track quality 100.0 %
Test CRC 4A274F6E
Copy CRC 4A274F6E
Accurately ripped (confidence 17) [24A90F0F] (AR v2)
Copy OK
Track 7
Filename D:\My Documents\Dropbox\My Music\What.cd project\Clemencic Consort - 1990 - Carmina Burana [FLAC]\CD 1\07 Carmina gulatorum et potarum- In taberna quando sumus (CB 196).wav
Pre-gap length 0:00:02.13
Peak level 77.3 %
Extraction speed 2.2 X
Track quality 99.9 %
Test CRC 74889D09
Copy CRC 74889D09
Accurately ripped (confidence 17) [B7BBD8B0] (AR v2)
Copy OK
Track 8
Filename D:\My Documents\Dropbox\My Music\What.cd project\Clemencic Consort - 1990 - Carmina Burana [FLAC]\CD 1\08 Carmina lusorum- (CB 215, 215a) Introitus- Lugeamus omnes in D.wav
Pre-gap length 0:00:03.86
Peak level 72.6 %
Extraction speed 3.5 X
Track quality 100.0 %
Test CRC 9055BE1B
Copy CRC 9055BE1B
Accurately ripped (confidence 17) [C26A5E53] (AR v2)
Copy OK
Track 9
Filename D:\My Documents\Dropbox\My Music\What.cd project\Clemencic Consort - 1990 - Carmina Burana [FLAC]\CD 1\09 Carmina lusorum- Epistola- Lectio actuum apopholorum.wav
Peak level 64.9 %
Extraction speed 2.7 X
Track quality 99.9 %
Test CRC D03275AC
Copy CRC D03275AC
Accurately ripped (confidence 17) [48F07366] (AR v2)
Copy OK
Track 10
Filename D:\My Documents\Dropbox\My Music\What.cd project\Clemencic Consort - 1990 - Carmina Burana [FLAC]\CD 1\10 Carmina lusorum- Sequentia- Victime novali.wav
Pre-gap length 0:00:00.04
Peak level 74.4 %
Extraction speed 4.0 X
Track quality 100.0 %
Test CRC 876F7E78
Copy CRC 876F7E78
Accurately ripped (confidence 17) [0F7C112A] (AR v2)
Copy OK
Track 11
Filename D:\My Documents\Dropbox\My Music\What.cd project\Clemencic Consort - 1990 - Carmina Burana [FLAC]\CD 1\11 Carmina lusorum- Evangelium- Sequentia falsi evangelii.wav
Pre-gap length 0:00:00.86
Peak level 70.1 %
Extraction speed 4.1 X
Track quality 100.0 %
Test CRC 23DDC90D
Copy CRC 23DDC90D
Accurately ripped (confidence 17) [24A23EC1] (AR v2)
Copy OK
Track 12
Filename D:\My Documents\Dropbox\My Music\What.cd project\Clemencic Consort - 1990 - Carmina Burana [FLAC]\CD 1\12 Carmina lusorum- Oratio- Omemus!.wav
Pre-gap length 0:00:00.02
Peak level 67.4 %
Extraction speed 4.1 X
Track quality 100.0 %
Test CRC DC753495
Copy CRC DC753495
Accurately ripped (confidence 17) [11BAFD95] (AR v2)
Copy OK
Track 13
Filename D:\My Documents\Dropbox\My Music\What.cd project\Clemencic Consort - 1990 - Carmina Burana [FLAC]\CD 1\13 Carmina moralia et divina- Dic, Christi veritas (CB 131), Bul.wav
Pre-gap length 0:00:01.00
Peak level 87.8 %
Extraction speed 4.7 X
Track quality 100.0 %
Test CRC 59260BF4
Copy CRC 59260BF4
Accurately ripped (confidence 17) [84E3D48F] (AR v2)
Copy OK
Track 14
Filename D:\My Documents\Dropbox\My Music\What.cd project\Clemencic Consort - 1990 - Carmina Burana [FLAC]\CD 1\14 Carmina moralia et divina- Licet eger II (CB 8).wav
Peak level 74.7 %
Extraction speed 4.8 X
Track quality 100.0 %
Test CRC 8C56DAEF
Copy CRC 8C56DAEF
Accurately ripped (confidence 17) [06AC03EC] (AR v2)
Copy OK
Track 15
Filename D:\My Documents\Dropbox\My Music\What.cd project\Clemencic Consort - 1990 - Carmina Burana [FLAC]\CD 1\15 Carmina moralia et divina- Si vocatus ad nupcias (CB 26,3).wav
Pre-gap length 0:00:00.04
Peak level 24.0 %
Extraction speed 2.5 X
Track quality 99.9 %
Test CRC 5638295C
Copy CRC 5638295C
Accurately ripped (confidence 17) [18EB5E1D] (AR v2)
Copy OK
Track 16
Filename D:\My Documents\Dropbox\My Music\What.cd project\Clemencic Consort - 1990 - Carmina Burana [FLAC]\CD 1\16 Carmina moralia et divina- Nomen a solempnibus II (CB 52).wav
Pre-gap length 0:00:00.50
Peak level 95.2 %
Extraction speed 4.6 X
Track quality 100.0 %
Test CRC B0794CA8
Copy CRC B0794CA8
Accurately ripped (confidence 17) [4AE5D027] (AR v2)
Copy OK
Track 17
Filename D:\My Documents\Dropbox\My Music\What.cd project\Clemencic Consort - 1990 - Carmina Burana [FLAC]\CD 1\17 Carmina moralia et divina- Fas et nefas ambulant (CB 19).wav
Pre-gap length 0:00:01.33
Peak level 70.3 %
Extraction speed 4.2 X
Track quality 100.0 %
Test CRC 5F077277
Copy CRC 5F077277
Accurately ripped (confidence 17) [1D7BA8D6] (AR v2)
Copy OK
Track 18
Filename D:\My Documents\Dropbox\My Music\What.cd project\Clemencic Consort - 1990 - Carmina Burana [FLAC]\CD 1\18 Carmina moralia et divina- Flete flenda (CB 5).wav
Peak level 56.2 %
Extraction speed 3.7 X
Track quality 100.0 %
Test CRC 6C403094
Copy CRC 6C403094
Accurately ripped (confidence 17) [B10FF17C] (AR v2)
Copy OK
Track 19
Filename D:\My Documents\Dropbox\My Music\What.cd project\Clemencic Consort - 1990 - Carmina Burana [FLAC]\CD 1\19 Carmina moralia et divina- Homo qui vigeas (CB 22).wav
Peak level 28.1 %
Extraction speed 3.0 X
Track quality 99.9 %
Test CRC D991EB97
Copy CRC D991EB97
Accurately ripped (confidence 17) [8AE246B9] (AR v2)
Copy OK
Track 20
Filename D:\My Documents\Dropbox\My Music\What.cd project\Clemencic Consort - 1990 - Carmina Burana [FLAC]\CD 1\20 Carmina moralia et divina- Procurans odium II (CB 12).wav
Pre-gap length 0:00:02.49
Peak level 91.2 %
Extraction speed 4.8 X
Track quality 100.0 %
Test CRC 92CEE936
Copy CRC 92CEE936
Accurately ripped (confidence 17) [74F2AFA3] (AR v2)
Copy OK
Track 21
Filename D:\My Documents\Dropbox\My Music\What.cd project\Clemencic Consort - 1990 - Carmina Burana [FLAC]\CD 1\21 Carmina moralia et divina- Crucifigat omnes (CB 47).wav
Peak level 87.9 %
Extraction speed 3.3 X
Track quality 99.9 %
Test CRC E5CC2C9D
Copy CRC E5CC2C9D
Accurately ripped (confidence 17) [FD413FC7] (AR v2)
Copy OK
All tracks accurately ripped
No errors occurred
End of status report
==== Log checksum 9BD399670EE00A486D8D5A6E5F13F2136A120ED3AD80CC95E5D76A0E2A908674 ====

Содержание индексной карты (.CUE)

REM DATE 1992
REM DISCID 11114E15
REM COMMENT "ExactAudioCopy v1.0b3"
PERFORMER "René Clementic · Clemencic Consort"
TITLE "Carmina Burana"
FILE "01. Bacche, bene venies I (CB 200).wav" WAVE
TRACK 01 AUDIO
TITLE "Bacche, bene venies I (CB 200)"
PERFORMER "René Clementic · Clemencic Consort"
PREGAP 00:00:32
INDEX 01 00:00:00
TRACK 02 AUDIO
TITLE "Virent prata hiemata (CB 151)"
PERFORMER "René Clementic · Clemencic Consort"
INDEX 00 03:02:10
FILE "02. Virent prata hiemata (CB 151).wav" WAVE
INDEX 01 00:00:00
FILE "03. Nomen a solempnibus I (CB 52).wav" WAVE
TRACK 03 AUDIO
TITLE "Nomen a solempnibus I (CB 52)"
PERFORMER "René Clementic · Clemencic Consort"
INDEX 01 00:00:00
TRACK 04 AUDIO
TITLE "Alte clamat Epicurus (CB 211), Nu lebe ich (CB 211a)"
PERFORMER "René Clementic · Clemencic Consort"
INDEX 00 02:11:60
FILE "04. Alte clamat Epicurus (CB 211), Nu lebe ich (CB 211a).wav" WAVE
INDEX 01 00:00:00
TRACK 05 AUDIO
TITLE "Vite perdite II (CB 31)"
PERFORMER "René Clementic · Clemencic Consort"
INDEX 00 07:08:63
FILE "05. Vite perdite II (CB 31).wav" WAVE
INDEX 01 00:00:00
TRACK 06 AUDIO
TITLE "Vacillantis trutine I (CB 108)"
PERFORMER "René Clementic · Clemencic Consort"
INDEX 00 01:34:68
FILE "06. Vacillantis trutine I (CB 108).wav" WAVE
INDEX 01 00:00:00
TRACK 07 AUDIO
TITLE "In taberna quando sumus (CB 196)"
PERFORMER "René Clementic · Clemencic Consort"
INDEX 00 04:42:23
FILE "07. In taberna quando sumus (CB 196).wav" WAVE
INDEX 01 00:00:00
TRACK 08 AUDIO
TITLE "Introitus: Lugeamus omnes in D"
PERFORMER "René Clementic · Clemencic Consort"
INDEX 00 02:42:37
FILE "08. Introitus. Lugeamus omnes in D.wav" WAVE
INDEX 01 00:00:00
FILE "09. Epistola. Lectio actuum apopholorum.wav" WAVE
TRACK 09 AUDIO
TITLE "Epistola: Lectio actuum apopholorum"
PERFORMER "René Clementic · Clemencic Consort"
INDEX 01 00:00:00
TRACK 10 AUDIO
TITLE "Sequentia: Victime novali"
PERFORMER "René Clementic · Clemencic Consort"
INDEX 00 04:05:25
FILE "10. Sequentia. Victime novali.wav" WAVE
INDEX 01 00:00:00
TRACK 11 AUDIO
TITLE "Evangelium: Sequentia falsi evangelii"
PERFORMER "René Clementic · Clemencic Consort"
INDEX 00 04:32:55
FILE "11. Evangelium. Sequentia falsi evangelii.wav" WAVE
INDEX 01 00:00:00
TRACK 12 AUDIO
TITLE "Oratio: Omemus!"
PERFORMER "René Clementic · Clemencic Consort"
INDEX 00 04:16:60
FILE "12. Oratio. Omemus!.wav" WAVE
INDEX 01 00:00:00
TRACK 13 AUDIO
TITLE "Dic, Christi veritas (CB 131), Bulla fulminante (CB 131a)"
PERFORMER "René Clementic · Clemencic Consort"
INDEX 00 03:32:45
FILE "13. Dic, Christi veritas (CB 131), Bulla fulminante (CB 131a).wav" WAVE
INDEX 01 00:00:00
FILE "14. Licet eger II (CB 8).wav" WAVE
TRACK 14 AUDIO
TITLE "Licet eger II (CB 8)"
PERFORMER "René Clementic · Clemencic Consort"
INDEX 01 00:00:00
TRACK 15 AUDIO
TITLE "Si vocatus ad nupcias (CB 26,3)"
PERFORMER "René Clementic · Clemencic Consort"
INDEX 00 05:46:22
FILE "15. Si vocatus ad nupcias (CB 26,3).wav" WAVE
INDEX 01 00:00:00
TRACK 16 AUDIO
TITLE "Nomen a solempnibus II (CB 52)"
PERFORMER "René Clementic · Clemencic Consort"
INDEX 00 01:57:52
FILE "16. Nomen a solempnibus II (CB 52).wav" WAVE
INDEX 01 00:00:00
TRACK 17 AUDIO
TITLE "Fas et nefas ambulant (CB 19)"
PERFORMER "René Clementic · Clemencic Consort"
INDEX 00 03:20:07
FILE "17. Fas et nefas ambulant (CB 19).wav" WAVE
INDEX 01 00:00:00
FILE "18. Flete flenda (CB 5).wav" WAVE
TRACK 18 AUDIO
TITLE "Flete flenda (CB 5)"
PERFORMER "René Clementic · Clemencic Consort"
INDEX 01 00:00:00
FILE "19. Homo qui vigeas (CB 22).wav" WAVE
TRACK 19 AUDIO
TITLE "Homo qui vigeas (CB 22)"
PERFORMER "René Clementic · Clemencic Consort"
INDEX 01 00:00:00
TRACK 20 AUDIO
TITLE "Procurans odium II (CB 12)"
PERFORMER "René Clementic · Clemencic Consort"
INDEX 00 02:34:63
FILE "20. Procurans odium II (CB 12).wav" WAVE
INDEX 01 00:00:00
FILE "21. Crucifigat omnes (CB 47).wav" WAVE
TRACK 21 AUDIO
TITLE "Crucifigat omnes (CB 47)"
PERFORMER "René Clementic · Clemencic Consort"
INDEX 01 00:00:00

CD 2

Carmina Moralia
01. Deduc, Syon, uberrimas (CB 34) (2:54)
02. Ecce, torpet probitas (CB 3) (2:18)
03. In terra sumus rex (CB 11) (3:04)
Carmina Veris et Amoris
04. Tempus transit gelidum (CB 153) (3:43)
05. Bacche, bene venies II (CB 200) (2:01)
06. Licet eger (CB 8) (3:09)
07. In Gedeonis ara (CB 37) (3:20)
08. Exiit diluculo rustica puella (CB 90) (1:04)
09. Clauso Chronos (CB 73) (3:13)
10. Olim sudor Herculis (CB 63) (19:56)
11. Virent prata hiemata (CB 151 et 151a) (8:09)
12. Veris dulcis in tempore I (CB 159) (6:18)
13. Vacillantis trutine II (CB 108) (9:41)
14. Michi confer, venditor I (CB 16) (2:50)
15. Veris dulcis in tempore II (CB 159) (2:51)

Лог создания рипа

Exact Audio Copy V1.0 beta 3 from 29. August 2011
EAC extraction logfile from 24. December 2014, 9:23
René Clementic & Clemencic Consort / Carmina Burana Version Originale CD2
Used drive : MATSHITADVD-RAM UJ8C2 S Adapter: 0 ID: 0
Read mode : Secure
Utilize accurate stream : Yes
Defeat audio cache : Yes
Make use of C2 pointers : No
Read offset correction : 103
Overread into Lead-In and Lead-Out : No
Fill up missing offset samples with silence : Yes
Delete leading and trailing silent blocks : No
Null samples used in CRC calculations : Yes
Used interface : Native Win32 interface for Win NT & 2000
Gap handling : Appended to previous track
Used output format : User Defined Encoder
Selected bitrate : 1024 kBit/s
Quality : High
Add ID3 tag : No
Command line compressor : C:\Program Files (x86)\Exact Audio Copy\Flac\flac.exe
Additional command line options : -8 -V -T "ARTIST=%artist%" -T "TITLE=%title%" -T "ALBUM=%albumtitle%" -T "DATE=%year%" -T "TRACKNUMBER=%tracknr%" -T "GENRE=%genre%" -T "PERFORMER=%albuminterpret%" -T "COMPOSER=%composer%" %haslyrics%--tag-from-file=LYRICS="%lyricsfile%"%haslyrics% -T "ALBUMARTIST=%albumartist%" -T "DISCNUMBER=%cdnumber%" -T "TOTALDISCS=%totalcds%" -T "TOTALTRACKS=%numtracks%" -T "COMMENT=%comment%" %source% -o %dest%
TOC of the extracted CD
Track | Start | Length | Start sector | End sector
---------------------------------------------------------
1 | 0:00.32 | 2:53.48 | 32 | 13054
2 | 2:54.05 | 2:18.22 | 13055 | 23426
3 | 5:12.27 | 3:03.38 | 23427 | 37189
4 | 8:15.65 | 3:42.47 | 37190 | 53886
5 | 11:58.37 | 2:01.33 | 53887 | 62994
6 | 13:59.70 | 3:09.35 | 62995 | 77204
7 | 17:09.30 | 3:19.42 | 77205 | 92171
8 | 20:28.72 | 1:04.23 | 92172 | 96994
9 | 21:33.20 | 3:13.32 | 96995 | 111501
10 | 24:46.52 | 19:56.00 | 111502 | 201201
11 | 44:42.52 | 8:08.40 | 201202 | 237841
12 | 52:51.17 | 6:17.63 | 237842 | 266179
13 | 59:09.05 | 9:40.57 | 266180 | 309736
14 | 68:49.62 | 2:50.13 | 309737 | 322499
15 | 71:40.00 | 2:50.40 | 322500 | 335289
Track 1
Filename D:\My Documents\Dropbox\My Music\What.cd project\Clemencic Consort - 1990 - Carmina Burana [FLAC]\CD 2\01 Carmina Moralia- Deduc, Syon, uberrimas (CB 34).wav
Pre-gap length 0:00:02.42
Peak level 98.8 %
Extraction speed 1.6 X
Track quality 99.9 %
Test CRC B6CEF928
Copy CRC B6CEF928
Accurately ripped (confidence 20) [484C013E] (AR v2)
Copy OK
Track 2
Filename D:\My Documents\Dropbox\My Music\What.cd project\Clemencic Consort - 1990 - Carmina Burana [FLAC]\CD 2\02 Carmina Moralia- Ecce, torpet probitas (CB 3).wav
Pre-gap length 0:00:00.04
Peak level 70.2 %
Extraction speed 2.4 X
Track quality 100.0 %
Test CRC 6E53C8B6
Copy CRC 6E53C8B6
Accurately ripped (confidence 20) [7643C3A4] (AR v2)
Copy OK
Track 3
Filename D:\My Documents\Dropbox\My Music\What.cd project\Clemencic Consort - 1990 - Carmina Burana [FLAC]\CD 2\03 Carmina Moralia- In terra sumus rex (CB 11).wav
Peak level 68.6 %
Extraction speed 2.7 X
Track quality 100.0 %
Test CRC 20507391
Copy CRC 20507391
Accurately ripped (confidence 20) [B82DCAE7] (AR v2)
Copy OK
Track 4
Filename D:\My Documents\Dropbox\My Music\What.cd project\Clemencic Consort - 1990 - Carmina Burana [FLAC]\CD 2\04 Carmina Veris et Amoris- Tempus transit gelidum (CB 153).wav
Peak level 60.1 %
Extraction speed 2.9 X
Track quality 100.0 %
Test CRC 91BA81C7
Copy CRC 91BA81C7
Accurately ripped (confidence 19) [530736E5] (AR v2)
Copy OK
Track 5
Filename D:\My Documents\Dropbox\My Music\What.cd project\Clemencic Consort - 1990 - Carmina Burana [FLAC]\CD 2\05 Carmina Veris et Amoris- Bacche, bene venies II (CB 200).wav
Pre-gap length 0:00:02.80
Peak level 100.0 %
Extraction speed 2.7 X
Track quality 100.0 %
Test CRC D0CBDE95
Copy CRC D0CBDE95
Accurately ripped (confidence 20) [E87C7A1A] (AR v2)
Copy OK
Track 6
Filename D:\My Documents\Dropbox\My Music\What.cd project\Clemencic Consort - 1990 - Carmina Burana [FLAC]\CD 2\06 Carmina Veris et Amoris- Licet eger (CB 8).wav
Pre-gap length 0:00:00.04
Peak level 36.5 %
Extraction speed 3.1 X
Track quality 100.0 %
Test CRC 223D1619
Copy CRC 223D1619
Accurately ripped (confidence 19) [0BC93C1A] (AR v2)
Copy OK
Track 7
Filename D:\My Documents\Dropbox\My Music\What.cd project\Clemencic Consort - 1990 - Carmina Burana [FLAC]\CD 2\07 Carmina Veris et Amoris- In Gedeonis ara (CB 37).wav
Pre-gap length 0:00:00.04
Peak level 90.2 %
Extraction speed 2.3 X
Track quality 99.9 %
Test CRC 13D63852
Copy CRC 13D63852
Accurately ripped (confidence 20) [9B40F97B] (AR v2)
Copy OK
Track 8
Filename D:\My Documents\Dropbox\My Music\What.cd project\Clemencic Consort - 1990 - Carmina Burana [FLAC]\CD 2\08 Carmina Veris et Amoris- Exiit diluculo rustica puella (CB 90).wav
Pre-gap length 0:00:04.69
Peak level 46.2 %
Extraction speed 2.5 X
Track quality 100.0 %
Test CRC B9D85FAD
Copy CRC B9D85FAD
Accurately ripped (confidence 21) [7A47AA8E] (AR v2)
Copy OK
Track 9
Filename D:\My Documents\Dropbox\My Music\What.cd project\Clemencic Consort - 1990 - Carmina Burana [FLAC]\CD 2\09 Carmina Veris et Amoris- Clauso Chronos (CB 73).wav
Peak level 54.5 %
Extraction speed 3.4 X
Track quality 100.0 %
Test CRC CF22ECDF
Copy CRC CF22ECDF
Accurately ripped (confidence 20) [13598D3B] (AR v2)
Copy OK
Track 10
Filename D:\My Documents\Dropbox\My Music\What.cd project\Clemencic Consort - 1990 - Carmina Burana [FLAC]\CD 2\10 Carmina Veris et Amoris- Olim sudor Herculis (CB 63).wav
Pre-gap length 0:00:07.13
Peak level 61.2 %
Extraction speed 4.5 X
Track quality 100.0 %
Test CRC 9F5261DF
Copy CRC 9F5261DF
Accurately ripped (confidence 20) [C90F3648] (AR v2)
Copy OK
Track 11
Filename D:\My Documents\Dropbox\My Music\What.cd project\Clemencic Consort - 1990 - Carmina Burana [FLAC]\CD 2\11 Carmina Veris et Amoris- Virent prata hiemata (CB 151,151a).wav
Pre-gap length 0:00:08.82
Peak level 62.0 %
Extraction speed 4.8 X
Track quality 100.0 %
Test CRC 05A07880
Copy CRC 05A07880
Accurately ripped (confidence 19) [5657FD28] (AR v2)
Copy OK
Track 12
Filename D:\My Documents\Dropbox\My Music\What.cd project\Clemencic Consort - 1990 - Carmina Burana [FLAC]\CD 2\12 Carmina Veris et Amoris- Veris dulcis in tempore I (CB 159).wav
Pre-gap length 0:00:07.69
Peak level 86.0 %
Extraction speed 4.0 X
Track quality 99.9 %
Test CRC 024B870C
Copy CRC 024B870C
Accurately ripped (confidence 19) [4A317C89] (AR v2)
Copy OK
Track 13
Filename D:\My Documents\Dropbox\My Music\What.cd project\Clemencic Consort - 1990 - Carmina Burana [FLAC]\CD 2\13 Carmina Veris et Amoris- Vacillantis trutine II (CB 108).wav
Pre-gap length 0:00:02.00
Peak level 69.5 %
Extraction speed 5.4 X
Track quality 100.0 %
Test CRC 1EDB4FBF
Copy CRC 1EDB4FBF
Accurately ripped (confidence 18) [05B05B1A] (AR v2)
Copy OK
Track 14
Filename D:\My Documents\Dropbox\My Music\What.cd project\Clemencic Consort - 1990 - Carmina Burana [FLAC]\CD 2\14 Carmina Veris et Amoris- Michi confer, venditor I (CB 16).wav
Pre-gap length 0:00:10.06
Peak level 84.4 %
Extraction speed 4.8 X
Track quality 100.0 %
Test CRC F3C5A1ED
Copy CRC F3C5A1ED
Accurately ripped (confidence 19) [35D25F2A] (AR v2)
Copy OK
Track 15
Filename D:\My Documents\Dropbox\My Music\What.cd project\Clemencic Consort - 1990 - Carmina Burana [FLAC]\CD 2\15 Carmina Veris et Amoris- Veris dulcis in tempore II (CB 159).wav
Pre-gap length 0:00:00.17
Peak level 93.6 %
Extraction speed 4.9 X
Track quality 100.0 %
Test CRC 09BC2CC0
Copy CRC 09BC2CC0
Accurately ripped (confidence 20) [B57F6504] (AR v2)
Copy OK
All tracks accurately ripped
No errors occurred
End of status report
==== Log checksum DC2036F65A3E0C143861F1168CF9313A3602B735CDFE9E1E50244EC6C3179CAA ====

Содержание индексной карты (.CUE)

REM DATE 1992
REM DISCID B511760F
REM COMMENT "ExactAudioCopy v1.0b3"
PERFORMER "René Clementic · Clemencic Consort"
TITLE "Carmina Burana"
FILE "01. Deduc, Syon, uberrimas (CB 34).wav" WAVE
TRACK 01 AUDIO
TITLE "Deduc, Syon, uberrimas (CB 34)"
PERFORMER "René Clementic · Clemencic Consort"
PREGAP 00:00:32
INDEX 01 00:00:00
TRACK 02 AUDIO
TITLE "Ecce, torpet probitas (CB 3)"
PERFORMER "René Clementic · Clemencic Consort"
INDEX 00 02:53:45
FILE "02. Ecce, torpet probitas (CB 3).wav" WAVE
INDEX 01 00:00:00
FILE "03. In terra sumus rex (CB 11).wav" WAVE
TRACK 03 AUDIO
TITLE "In terra sumus rex (CB 11)"
PERFORMER "René Clementic · Clemencic Consort"
INDEX 01 00:00:00
FILE "04. Tempus transit gelidum (CB 153).wav" WAVE
TRACK 04 AUDIO
TITLE "Tempus transit gelidum (CB 153)"
PERFORMER "René Clementic · Clemencic Consort"
INDEX 01 00:00:00
TRACK 05 AUDIO
TITLE "Bacche, bene venies II (CB 200)"
PERFORMER "René Clementic · Clemencic Consort"
INDEX 00 03:39:62
FILE "05. Bacche, bene venies II (CB 200).wav" WAVE
INDEX 01 00:00:00
TRACK 06 AUDIO
TITLE "Licet eger (CB 8)"
PERFORMER "René Clementic · Clemencic Consort"
INDEX 00 02:01:30
FILE "06. Licet eger (CB 8).wav" WAVE
INDEX 01 00:00:00
TRACK 07 AUDIO
TITLE "In Gedeonis ara (CB 37)"
PERFORMER "René Clementic · Clemencic Consort"
INDEX 00 03:09:32
FILE "07. In Gedeonis ara (CB 37).wav" WAVE
INDEX 01 00:00:00
TRACK 08 AUDIO
TITLE "Exiit diluculo rustica puella (CB 90)"
PERFORMER "René Clementic · Clemencic Consort"
INDEX 00 03:14:65
FILE "08. Exiit diluculo rustica puella (CB 90).wav" WAVE
INDEX 01 00:00:00
FILE "09. Clauso Chronos (CB 73).wav" WAVE
TRACK 09 AUDIO
TITLE "Clauso Chronos (CB 73)"
PERFORMER "René Clementic · Clemencic Consort"
INDEX 01 00:00:00
TRACK 10 AUDIO
TITLE "Olim sudor Herculis (CB 63)"
PERFORMER "René Clementic · Clemencic Consort"
INDEX 00 03:06:22
FILE "10. Olim sudor Herculis (CB 63).wav" WAVE
INDEX 01 00:00:00
TRACK 11 AUDIO
TITLE "Virent prata hiemata (CB 151 et 151a)"
PERFORMER "René Clementic · Clemencic Consort"
INDEX 00 19:47:13
FILE "11. Virent prata hiemata (CB 151 et 151a).wav" WAVE
INDEX 01 00:00:00
TRACK 12 AUDIO
TITLE "Veris dulcis in tempore I (CB 159)"
PERFORMER "René Clementic · Clemencic Consort"
INDEX 00 08:00:63
FILE "12. Veris dulcis in tempore I (CB 159).wav" WAVE
INDEX 01 00:00:00
TRACK 13 AUDIO
TITLE "Vacillantis trutine II (CB 108)"
PERFORMER "René Clementic · Clemencic Consort"
INDEX 00 06:15:63
FILE "13. Vacillantis trutine II (CB 108).wav" WAVE
INDEX 01 00:00:00
TRACK 14 AUDIO
TITLE "Michi confer, venditor I (CB 16)"
PERFORMER "René Clementic · Clemencic Consort"
INDEX 00 09:30:52
FILE "14. Michi confer, venditor I (CB 16).wav" WAVE
INDEX 01 00:00:00
TRACK 15 AUDIO
TITLE "Veris dulcis in tempore II (CB 159)"
PERFORMER "René Clementic · Clemencic Consort"
INDEX 00 02:50:00
FILE "15. Veris dulcis in tempore II (CB 159).wav" WAVE
INDEX 01 00:00:00

CD 3

Carmina Divina
01. Ave nobilis venerabilis Maria (CB 11) (5:50)
02. Fulget dies celebris (CB 153) (1:16)
Plaintes Mariales du Jeu de la Passion
03. Ave, domina mundi (CB 18) (3:11)
04. Ave Maria, gratia plena (CB 15) (1:18)
05. Deus, in nomine tuo (CB 15) (2:08)
06. Ludus de Passione (CB 16) (32:24)
07. Regali ex progenie Maria (CB 18) (1:29)
08. Sanctissima et glorissima (CB 34) (0:31)
Carmina amoris infelicis
09. Iste mundus furibundus (CB 24) (1:41)
10. Axe Phebus aureo (CB 71) (2:56)
11. Dulce solum natalis patrie (CB 119) (8:29)
12. Procurans odium I (CB 12) (2:43)
13. Vite perdite I (CB 31) (1:07)
14. Sic mea fata canendo solo (CB 116) (3:26)
15. Ich was ein chint so wolgetan (CB 185) (3:42)

Лог создания рипа

Exact Audio Copy V1.0 beta 3 from 29. August 2011
EAC extraction logfile from 24. December 2014, 10:16
René Clementic & Clemencic Consort / Carmina Burana Version Originale CD3
Used drive : MATSHITADVD-RAM UJ8C2 S Adapter: 0 ID: 0
Read mode : Secure
Utilize accurate stream : Yes
Defeat audio cache : Yes
Make use of C2 pointers : No
Read offset correction : 103
Overread into Lead-In and Lead-Out : No
Fill up missing offset samples with silence : Yes
Delete leading and trailing silent blocks : No
Null samples used in CRC calculations : Yes
Used interface : Native Win32 interface for Win NT & 2000
Gap handling : Appended to previous track
Used output format : User Defined Encoder
Selected bitrate : 1024 kBit/s
Quality : High
Add ID3 tag : No
Command line compressor : C:\Program Files (x86)\Exact Audio Copy\Flac\flac.exe
Additional command line options : -8 -V -T "ARTIST=%artist%" -T "TITLE=%title%" -T "ALBUM=%albumtitle%" -T "DATE=%year%" -T "TRACKNUMBER=%tracknr%" -T "GENRE=%genre%" -T "PERFORMER=%albuminterpret%" -T "COMPOSER=%composer%" %haslyrics%--tag-from-file=LYRICS="%lyricsfile%"%haslyrics% -T "ALBUMARTIST=%albumartist%" -T "DISCNUMBER=%cdnumber%" -T "TOTALDISCS=%totalcds%" -T "TOTALTRACKS=%numtracks%" -T "COMMENT=%comment%" %source% -o %dest%
TOC of the extracted CD
Track | Start | Length | Start sector | End sector
---------------------------------------------------------
1 | 0:00.32 | 5:50.25 | 32 | 26306
2 | 5:50.57 | 1:16.25 | 26307 | 32031
3 | 7:07.07 | 3:10.53 | 32032 | 46334
4 | 10:17.60 | 1:18.07 | 46335 | 52191
5 | 11:35.67 | 2:08.23 | 52192 | 61814
6 | 13:44.15 | 32:24.17 | 61815 | 207631
7 | 46:08.32 | 1:29.13 | 207632 | 214319
8 | 47:37.45 | 0:31.17 | 214320 | 216661
9 | 48:08.62 | 1:41.20 | 216662 | 224256
10 | 49:50.07 | 2:55.68 | 224257 | 237449
11 | 52:46.00 | 8:28.60 | 237450 | 275609
12 | 61:14.60 | 2:43.37 | 275610 | 287871
13 | 63:58.22 | 1:06.43 | 287872 | 292864
14 | 65:04.65 | 3:26.22 | 292865 | 308336
15 | 68:31.12 | 3:42.10 | 308337 | 324996
Track 1
Filename D:\My Documents\Dropbox\My Music\What.cd project\Clemencic Consort - 1990 - Carmina Burana [FLAC]\CD 3\01 Carmina Divina- Ave nobilis venerabilis Maria (CB 11).wav
Pre-gap length 0:00:02.42
Peak level 80.5 %
Extraction speed 2.7 X
Track quality 100.0 %
Test CRC 83BA7E2B
Copy CRC 83BA7E2B
Accurately ripped (confidence 19) [90F49593] (AR v2)
Copy OK
Track 2
Filename D:\My Documents\Dropbox\My Music\What.cd project\Clemencic Consort - 1990 - Carmina Burana [FLAC]\CD 3\02 Carmina Divina- Fulget dies celebris (CB 153).wav
Pre-gap length 0:00:03.16
Peak level 98.0 %
Extraction speed 1.2 X
Track quality 99.8 %
Test CRC 0F05BCE1
Copy CRC 0F05BCE1
Accurately ripped (confidence 19) [BD4CF86F] (AR v2)
Copy OK
Track 3
Filename D:\My Documents\Dropbox\My Music\What.cd project\Clemencic Consort - 1990 - Carmina Burana [FLAC]\CD 3\03 Plaintes Mariales du Jeu de la Passion- Ave, domina mundi (CB.wav
Pre-gap length 0:00:06.46
Peak level 98.1 %
Extraction speed 2.8 X
Track quality 100.0 %
Test CRC 3988DD3A
Copy CRC 3988DD3A
Accurately ripped (confidence 19) [14E9CE22] (AR v2)
Copy OK
Track 4
Filename D:\My Documents\Dropbox\My Music\What.cd project\Clemencic Consort - 1990 - Carmina Burana [FLAC]\CD 3\04 Plaintes Mariales du Jeu de la Passion- Ave Maria, gratia plena (CB 15).wav
Peak level 48.0 %
Extraction speed 2.3 X
Track quality 100.0 %
Test CRC E60ED9AA
Copy CRC E60ED9AA
Accurately ripped (confidence 19) [52A71123] (AR v2)
Copy OK
Track 5
Filename D:\My Documents\Dropbox\My Music\What.cd project\Clemencic Consort - 1990 - Carmina Burana [FLAC]\CD 3\05 Plaintes Mariales du Jeu de la Passion- Deus, in nomine tuo (CB 15).wav
Peak level 64.5 %
Extraction speed 2.7 X
Track quality 100.0 %
Test CRC ABA1D4F5
Copy CRC ABA1D4F5
Accurately ripped (confidence 18) [8531B312] (AR v2)
Copy OK
Track 6
Filename D:\My Documents\Dropbox\My Music\What.cd project\Clemencic Consort - 1990 - Carmina Burana [FLAC]\CD 3\06 Plaintes Mariales du Jeu de la Passion- Ludus de Passione (CB 16).wav
Peak level 75.5 %
Extraction speed 4.3 X
Track quality 100.0 %
Test CRC 229B17AB
Copy CRC 229B17AB
Accurately ripped (confidence 19) [DD87FCE0] (AR v2)
Copy OK
Track 7
Filename D:\My Documents\Dropbox\My Music\What.cd project\Clemencic Consort - 1990 - Carmina Burana [FLAC]\CD 3\07 Plaintes Mariales du Jeu de la Passion- Regali ex progenie Maria (CB 18).wav
Peak level 93.9 %
Extraction speed 3.5 X
Track quality 100.0 %
Test CRC 87271686
Copy CRC 87271686
Accurately ripped (confidence 19) [F172314E] (AR v2)
Copy OK
Track 8
Filename D:\My Documents\Dropbox\My Music\What.cd project\Clemencic Consort - 1990 - Carmina Burana [FLAC]\CD 3\08 Plaintes Mariales du Jeu de la Passion- Sanctissima et glorissima (CB 34).wav
Peak level 33.7 %
Extraction speed 0.9 X
Track quality 99.6 %
Test CRC C079A440
Copy CRC C079A440
Accurately ripped (confidence 19) [65FEAE97] (AR v2)
Copy OK
Track 9
Filename D:\My Documents\Dropbox\My Music\What.cd project\Clemencic Consort - 1990 - Carmina Burana [FLAC]\CD 3\09 Carmina amoris infelicis- Iste mundus furibundus (CB 24).wav
Pre-gap length 0:00:04.09
Peak level 99.9 %
Extraction speed 2.1 X
Track quality 99.8 %
Test CRC 86792AAD
Copy CRC 86792AAD
Accurately ripped (confidence 19) [8E909E39] (AR v2)
Copy OK
Track 10
Filename D:\My Documents\Dropbox\My Music\What.cd project\Clemencic Consort - 1990 - Carmina Burana [FLAC]\CD 3\10 Carmina amoris infelicis- Plaintes Mariales du Jeu de la Passion- Axe Phebus aureo (CB 71).wav
Peak level 69.3 %
Extraction speed 4.3 X
Track quality 100.0 %
Test CRC CCA87D37
Copy CRC CCA87D37
Accurately ripped (confidence 19) [ED65BAFD] (AR v2)
Copy OK
Track 11
Filename D:\My Documents\Dropbox\My Music\What.cd project\Clemencic Consort - 1990 - Carmina Burana [FLAC]\CD 3\11 Carmina amoris infelicis- Dulce solum natalis patrie (CB 119).wav
Pre-gap length 0:00:00.84
Peak level 45.6 %
Extraction speed 5.1 X
Track quality 100.0 %
Test CRC 2ABD60FA
Copy CRC 2ABD60FA
Accurately ripped (confidence 19) [16666D47] (AR v2)
Copy OK
Track 12
Filename D:\My Documents\Dropbox\My Music\What.cd project\Clemencic Consort - 1990 - Carmina Burana [FLAC]\CD 3\12 Carmina amoris infelicis- Procurans odium I (CB 12).wav
Pre-gap length 0:00:06.26
Peak level 58.5 %
Extraction speed 4.6 X
Track quality 100.0 %
Test CRC C9B9B0C1
Copy CRC C9B9B0C1
Accurately ripped (confidence 19) [4D6D3562] (AR v2)
Copy OK
Track 13
Filename D:\My Documents\Dropbox\My Music\What.cd project\Clemencic Consort - 1990 - Carmina Burana [FLAC]\CD 3\13 Carmina amoris infelicis- Vite perdite I (CB 31).wav
Peak level 67.7 %
Extraction speed 3.5 X
Track quality 100.0 %
Test CRC 1385EC50
Copy CRC 1385EC50
Accurately ripped (confidence 19) [78F107CE] (AR v2)
Copy OK
Track 14
Filename D:\My Documents\Dropbox\My Music\What.cd project\Clemencic Consort - 1990 - Carmina Burana [FLAC]\CD 3\14 Carmina amoris infelicis- Sic mea fata canendo solo (CB 116).wav
Peak level 92.4 %
Extraction speed 4.9 X
Track quality 100.0 %
Test CRC C7560DBA
Copy CRC C7560DBA
Accurately ripped (confidence 19) [222D7AB9] (AR v2)
Copy OK
Track 15
Filename D:\My Documents\Dropbox\My Music\What.cd project\Clemencic Consort - 1990 - Carmina Burana [FLAC]\CD 3\15 Carmina amoris infelicis- Ich was ein chint so wolgetan (CB 185).wav
Peak level 91.5 %
Extraction speed 3.6 X
Track quality 99.9 %
Test CRC 5A209CC2
Copy CRC 5A209CC2
Accurately ripped (confidence 19) [AB002A5D] (AR v2)
Copy OK
All tracks accurately ripped
No errors occurred
End of status report
==== Log checksum 89C57C6D8C9F981667AE94023DEBA682FDDF40152D94FAAFD91CE877C627AA70 ====

Содержание индексной карты (.CUE)

REM DATE 1992
REM DISCID F410ED0F
REM COMMENT "ExactAudioCopy v1.0b3"
CATALOG 0000000000000
PERFORMER "René Clementic · Clemencic Consort"
TITLE "Carmina Burana"
FILE "01. Ave nobilis venerabilis Maria (CB 11).wav" WAVE
TRACK 01 AUDIO
TITLE "Ave nobilis venerabilis Maria (CB 11)"
PERFORMER "René Clementic · Clemencic Consort"
PREGAP 00:00:32
INDEX 01 00:00:00
TRACK 02 AUDIO
TITLE "Fulget dies celebris (CB 153)"
PERFORMER "René Clementic · Clemencic Consort"
INDEX 00 05:47:13
FILE "02. Fulget dies celebris (CB 153).wav" WAVE
INDEX 01 00:00:00
TRACK 03 AUDIO
TITLE "Ave, domina mundi (CB 18)"
PERFORMER "René Clementic · Clemencic Consort"
INDEX 00 01:09:65
FILE "03. Ave, domina mundi (CB 18).wav" WAVE
INDEX 01 00:00:00
FILE "04. Ave Maria, gratia plena (CB 15).wav" WAVE
TRACK 04 AUDIO
TITLE "Ave Maria, gratia plena (CB 15)"
PERFORMER "René Clementic · Clemencic Consort"
INDEX 01 00:00:00
FILE "05. Deus, in nomine tuo (CB 15).wav" WAVE
TRACK 05 AUDIO
TITLE "Deus, in nomine tuo (CB 15)"
PERFORMER "René Clementic · Clemencic Consort"
INDEX 01 00:00:00
FILE "06. Ludus de Passione (CB 16).wav" WAVE
TRACK 06 AUDIO
TITLE "Ludus de Passione (CB 16)"
PERFORMER "René Clementic · Clemencic Consort"
INDEX 01 00:00:00
FILE "07. Regali ex progenie Maria (CB 18).wav" WAVE
TRACK 07 AUDIO
TITLE "Regali ex progenie Maria (CB 18)"
PERFORMER "René Clementic · Clemencic Consort"
INDEX 01 00:00:00
FILE "08. Sanctissima et glorissima (CB 34).wav" WAVE
TRACK 08 AUDIO
TITLE "Sanctissima et glorissima (CB 34)"
PERFORMER "René Clementic · Clemencic Consort"
INDEX 01 00:00:00
TRACK 09 AUDIO
TITLE "Iste mundus furibundus (CB 24)"
PERFORMER "René Clementic · Clemencic Consort"
INDEX 00 00:27:10
FILE "09. Iste mundus furibundus (CB 24).wav" WAVE
INDEX 01 00:00:00
FILE "10. Axe Phebus aureo (CB 71).wav" WAVE
TRACK 10 AUDIO
TITLE "Axe Phebus aureo (CB 71)"
PERFORMER "René Clementic · Clemencic Consort"
INDEX 01 00:00:00
TRACK 11 AUDIO
TITLE "Dulce solum natalis patrie (CB 119)"
PERFORMER "René Clementic · Clemencic Consort"
INDEX 00 02:55:05
FILE "11. Dulce solum natalis patrie (CB 119).wav" WAVE
INDEX 01 00:00:00
TRACK 12 AUDIO
TITLE "Procurans odium I (CB 12)"
PERFORMER "René Clementic · Clemencic Consort"
INDEX 00 08:22:40
FILE "12. Procurans odium I (CB 12).wav" WAVE
INDEX 01 00:00:00
FILE "13. Vite perdite I (CB 31).wav" WAVE
TRACK 13 AUDIO
TITLE "Vite perdite I (CB 31)"
PERFORMER "René Clementic · Clemencic Consort"
INDEX 01 00:00:00
FILE "14. Sic mea fata canendo solo (CB 116).wav" WAVE
TRACK 14 AUDIO
TITLE "Sic mea fata canendo solo (CB 116)"
PERFORMER "René Clementic · Clemencic Consort"
INDEX 01 00:00:00
FILE "15. Ich was ein chint so wolgetan (CB 185).wav" WAVE
TRACK 15 AUDIO
TITLE "Ich was ein chint so wolgetan (CB 185)"
PERFORMER "René Clementic · Clemencic Consort"
INDEX 01 00:00:00
[teatrix.ru].t22094.torrent 
Торрент: Зарегистрирован [ 2016-03-20 12:44 ] · 8F57A8795441D975BB6DECCF6FFB246C1309423A

Скачать .torrent

Скачать

16 KB

Статус: проверено
Скачан: 0 раз
Размер: 1.14 GB
terms.php



Быстрый ответ

Имя:

      
Для отправки сообщений необходимо включить JavaScript
Показать сообщения:    

Текущее время: 06-Дек 22:54

Часовой пояс: UTC + 3


Вы можете начинать темы
Вы можете отвечать на сообщения
Вы не можете редактировать свои сообщения
Вы не можете удалять свои сообщения
Вы не можете голосовать в опросах
Вы не можете прикреплять файлы к сообщениям
Вы можете скачивать файлы