(Classical) Gabriel Faure - Piano Quartet No.1; Piano Trio - Kungsbacka Piano Trio, Philip Dukes - 2013, FLAC (image+.cue) lossless


 

[Цитировать]

Gabriel Fauré - Piano Quartet No.1; Piano Trio - Kungsbacka Piano Trio, Philip Dukes
Жанр: Classical
Год издания диска: 2013
Издатель (лейбл): Naxos
Номер по каталогу: 8.573042
Дата записи: 2012
Аудиокодек: FLAC
Тип рипа: image+.cue
Битрейт аудио: lossless
Продолжительность: 61:16
Источник: собственный рип
Наличие сканов в содержимом раздачи: да
Треклист:
Gabriel Fauré (1845–1924)
[1]-[4] Piano Quartet No.1 in C minor, Op.15
[5]-[7] Piano Trio in D minor, Op.120
[8] Pavane, Op.50 (transcr. for piano trio by Henri Büsser)
[9] Pièce (for violin and piano)
(originally Vocalise-Etude in E minor)
[10] Sicilienne, Op.78 (version for solo piano)
Исполнители:
Kungsbacka Piano Trio
Malin Broman violin [1]–[9]
Jesper Svedberg cello [1]–[8]
Simon Crawford-Phillips piano [1]–[10]
Philip Dukes viola [1]–[4]

Лог создания рипа

Exact Audio Copy V1.0 beta 3 from 29. August 2011
EAC extraction logfile from 22. February 2015, 23:50
Kungsbacka Trio / Faure - Piano Quartet No.1, Piano Trio
Used drive : HL-DT-STDVDRAM GU70N Adapter: 0 ID: 0
Read mode : Secure
Utilize accurate stream : Yes
Defeat audio cache : Yes
Make use of C2 pointers : No
Read offset correction : 48
Overread into Lead-In and Lead-Out : No
Fill up missing offset samples with silence : Yes
Delete leading and trailing silent blocks : No
Null samples used in CRC calculations : Yes
Used interface : Native Win32 interface for Win NT & 2000
Used output format : User Defined Encoder
Selected bitrate : 128 kBit/s
Quality : High
Add ID3 tag : No
Command line compressor : C:\Program Files (x86)\Exact Audio Copy\Flac\flac.exe
Additional command line options : -V -8 -T "Date=%year%" -T "Genre=%genre%" %source%
TOC of the extracted CD
Track | Start | Length | Start sector | End sector
---------------------------------------------------------
1 | 0:00.00 | 9:39.46 | 0 | 43470
2 | 9:39.46 | 5:26.14 | 43471 | 67934
3 | 15:05.60 | 7:11.10 | 67935 | 100269
4 | 22:16.70 | 8:10.08 | 100270 | 137027
5 | 30:27.03 | 5:59.74 | 137028 | 164026
6 | 36:27.02 | 8:36.70 | 164027 | 202796
7 | 45:03.72 | 4:35.11 | 202797 | 223432
8 | 49:39.08 | 5:13.39 | 223433 | 246946
9 | 54:52.47 | 2:56.44 | 246947 | 260190
10 | 57:49.16 | 3:25.02 | 260191 | 275567
Range status and errors
Selected range
Filename C:\temp\Naxos_8.573042 - Faure -Piano Quartet No.1; Piano Trio\Faure - Piano Quartet No.1, Piano Trio.wav
Peak level 100.0 %
Extraction speed 5.2 X
Range quality 99.9 %
Test CRC CD216DC3
Copy CRC CD216DC3
Copy OK
No errors occurred
AccurateRip summary
Track 1 not present in database
Track 2 not present in database
Track 3 not present in database
Track 4 not present in database
Track 5 not present in database
Track 6 not present in database
Track 7 not present in database
Track 8 not present in database
Track 9 not present in database
Track 10 not present in database
None of the tracks are present in the AccurateRip database
End of status report
==== Log checksum 4A9518130E0C73BBD940E98AEFC0A090BB4BD27C0A3C5EF244316FF348A3DC47 ====



Показать сообщения:    

Текущее время: 04-Дек 11:15

Часовой пояс: UTC + 3


Вы не можете начинать темы
Вы не можете отвечать на сообщения
Вы не можете редактировать свои сообщения
Вы не можете удалять свои сообщения
Вы не можете голосовать в опросах
Вы не можете прикреплять файлы к сообщениям
Вы не можете скачивать файлы