(Opera) Donizetti - Lucia di Lammermoor (Callas, Campora, Sordello, Moscona, Franke - Chorus & Orchestra of the Metropolitan Opera, Cleva) - 2007, APE (image+.cue) lossless


 

[Цитировать]

Gaetano Donizetti - Lucia di Lammermoor
Жанр: Opera
Страна-производитель диска: EU
Год издания диска: 2007
Издатель (лейбл): Myto
Номер по каталогу: 00137
Дата записи: 1956
Аудиокодек: APE
Тип рипа: image+.cue
Битрейт аудио: lossless
Продолжительность: 61'01+74'40
Источник: собственный рип
Наличие сканов в содержимом раздачи: да
Треклист:
Треклист:

CD1

Act 1
1 Introduzione
2 Percorrete le spiagge vicine,
3 Tu sei turbato!
4 Cruda, funesta smania
5 II tuo dubbio è ormai certezza.
6 La pietade in suo favore
7 Introduzione - Scena IV
8 Ancor non giunse!
9 Regnava nel silenzio
10 Quando, rapito in estasi
11 Egl i 5' avanza ...
12 Sulla tomba che rinserra
13 Qui di sposa eterna fede,
14 Verranno a te sull'aure
Act 2
15 Lucia fra poco a te verrà.
16 Appressati, Lucia.
17 Soffriva nel piantà ...
18 Che fia ...
19 Se tradirmi tu potrai,
20 Per te d'immenso giubilo
21 Per poco fra le tenebre
22 Dov'è Lucia?
23 Chi mi frena in tal momento?
24 T'allontana,sciagurato

CD2

Act 2
1 D'immenso giubilo
2 Cessi ... Ahi, cessi quel contento ...
3 Dalle stanze ove Lucia
4 Eccola! ... II dolce suono
5 Ardon gl'incensi ...
6 Spargi d'amaro pianto
7 Tombe degli avi miei,
8 Fra poco a me ricovero
9 Oh meschina! oh fato orrendo!
10 Tu che a Dio spiegasti l'ali
Bonus: Maria Callas in Lucia di Lammermoor
11 Ancor non giunse!
12 Regnava nel silenzio
13 Quando, rapito in estasi
14 Lucia, perdona
15 Sulla tomba che rinserra
16 Eccola! ... 11 dolce suono
17 Ardon gl'incensi ...
18 Spargi d'amaro pianto
Исполнители:
Gaetano Donizetti - Lucia di Lammermoor
Lucia - Maria Callas
Edgardo - Giuseppe Campora
Enrico - Enzo Sordello
Raimondo - Nicola Moscona
Arturo - Paul Franke
Alisa - Thelma Votipka
Normanno - James McCracken
Chorus of the Metropolitan Opera
Orchestra of the Metropolitan Opera
Conductor Fausto Cleva
performed in Italian
1956

Лог создания рипа

CD1

Exact Audio Copy V1.0 beta 3 from 29. August 2011
EAC extraction logfile from 2. October 2014, 20:02
Donizetti / Lucia di Lammermoor, Cleva CD1
Used drive : TS8XDVDSTRANSCEND Adapter: 1 ID: 1
Read mode : Secure
Utilize accurate stream : Yes
Defeat audio cache : Yes
Make use of C2 pointers : No
Read offset correction : 6
Overread into Lead-In and Lead-Out : No
Fill up missing offset samples with silence : Yes
Delete leading and trailing silent blocks : No
Null samples used in CRC calculations : Yes
Used interface : Native Win32 interface for Win NT & 2000
Used output format : Monkey's Audio Lossless Encoder
Selected bitrate : High Lossless Compression
Quality : High
Add ID3 tag : Yes
Command line compressor : C:\Program Files (x86)\Exact Audio Copy\MAC\MAC.exe
TOC of the extracted CD
Track | Start | Length | Start sector | End sector
---------------------------------------------------------
1 | 0:00.00 | 2:12.19 | 0 | 9918
2 | 2:12.19 | 2:17.50 | 9919 | 20243
3 | 4:29.69 | 2:58.40 | 20244 | 33633
4 | 7:28.34 | 2:12.23 | 33634 | 43556
5 | 9:40.57 | 2:18.36 | 43557 | 53942
6 | 11:59.18 | 1:33.61 | 53943 | 60978
7 | 13:33.04 | 3:01.40 | 60979 | 74593
8 | 16:34.44 | 2:01.65 | 74594 | 83733
9 | 18:36.34 | 4:03.31 | 83734 | 101989
10 | 22:39.65 | 3:41.42 | 101990 | 118606
11 | 26:21.32 | 2:39.16 | 118607 | 130547
12 | 29:00.48 | 3:12.40 | 130548 | 144987
13 | 32:13.13 | 2:29.47 | 144988 | 156209
14 | 34:42.60 | 4:33.41 | 156210 | 176725
15 | 39:16.26 | 3:09.35 | 176726 | 190935
16 | 42:25.61 | 5:18.07 | 190936 | 214792
17 | 47:43.68 | 3:48.19 | 214793 | 231911
18 | 51:32.12 | 1:29.09 | 231912 | 238595
19 | 53:01.21 | 2:12.66 | 238596 | 248561
20 | 55:14.12 | 1:33.34 | 248562 | 255570
21 | 56:47.46 | 2:59.57 | 255571 | 269052
22 | 59:47.28 | 4:28.66 | 269053 | 289218
23 | 64:16.19 | 4:15.39 | 289219 | 308382
24 | 68:31.58 | 4:44.48 | 308383 | 329730
Range status and errors
Selected range
Filename D:\EAC\Donizetti - Lucia di Lammermoor, Cleva CD1.wav
Peak level 100.0 %
Extraction speed 3.3 X
Range quality 99.9 %
Test CRC 491F154C
Copy CRC 491F154C
Copy OK
No errors occurred
AccurateRip summary
Track 1 not present in database
Track 2 not present in database
Track 3 not present in database
Track 4 not present in database
Track 5 not present in database
Track 6 not present in database
Track 7 not present in database
Track 8 not present in database
Track 9 not present in database
Track 10 not present in database
Track 11 not present in database
Track 12 not present in database
Track 13 not present in database
Track 14 not present in database
Track 15 not present in database
Track 16 not present in database
Track 17 not present in database
Track 18 not present in database
Track 19 not present in database
Track 20 not present in database
Track 21 not present in database
Track 22 not present in database
Track 23 not present in database
Track 24 not present in database
None of the tracks are present in the AccurateRip database
End of status report
---- CUETools DB Plugin V2.1.3
[CTDB TOCID: _IdTmRmR6fwadbR1YJQTmh4wxIc-] found, Submit result: unrecognized or virtual drive
[b877c371] (1/1) Accurately ripped
==== Log checksum E23413D5223BC9E920CBA9A0682288E4CA8A90F1E1A191D9AF368DAE507793B3 ====

CD2

Exact Audio Copy V1.0 beta 3 from 29. August 2011
EAC extraction logfile from 2. October 2014, 19:47
Donizetti / Lucia di Lammermoor, Cleva CD2
Used drive : TSSTcorpCDDVDW SE-208AB Adapter: 1 ID: 0
Read mode : Secure
Utilize accurate stream : Yes
Defeat audio cache : Yes
Make use of C2 pointers : No
Read offset correction : 6
Overread into Lead-In and Lead-Out : No
Fill up missing offset samples with silence : Yes
Delete leading and trailing silent blocks : No
Null samples used in CRC calculations : Yes
Used interface : Native Win32 interface for Win NT & 2000
Used output format : Monkey's Audio Lossless Encoder
Selected bitrate : High Lossless Compression
Quality : High
Add ID3 tag : No
Command line compressor : C:\Program Files (x86)\Exact Audio Copy\MAC\MAC.exe
TOC of the extracted CD
Track | Start | Length | Start sector | End sector
---------------------------------------------------------
1 | 0:00.00 | 1:50.04 | 0 | 8253
2 | 1:50.04 | 0:34.48 | 8254 | 10851
3 | 2:24.52 | 4:30.52 | 10852 | 31153
4 | 6:55.29 | 6:29.57 | 31154 | 60385
5 | 13:25.11 | 6:09.68 | 60386 | 88128
6 | 19:35.04 | 3:50.06 | 88129 | 105384
7 | 23:25.10 | 4:29.04 | 105385 | 125563
8 | 27:54.14 | 3:24.08 | 125564 | 140871
9 | 31:18.22 | 4:10.17 | 140872 | 159638
10 | 35:28.39 | 4:49.14 | 159639 | 181327
11 | 40:17.53 | 1:45.07 | 181328 | 189209
12 | 42:02.60 | 3:54.38 | 189210 | 206797
13 | 45:57.23 | 5:18.21 | 206798 | 230668
14 | 51:15.44 | 2:28.74 | 230669 | 241842
15 | 53:44.43 | 3:14.07 | 241843 | 256399
16 | 56:58.50 | 7:32.33 | 256400 | 290332
17 | 64:31.08 | 5:44.66 | 290333 | 316198
18 | 70:15.74 | 4:24.01 | 316199 | 335999
Range status and errors
Selected range
Filename D:\EAC\Donizetti - Lucia di Lammermoor, Cleva CD2.wav
Peak level 98.3 %
Extraction speed 5.1 X
Range quality 99.9 %
Test CRC 5E51A9B0
Copy CRC 5E51A9B0
Copy OK
No errors occurred
AccurateRip summary
Track 1 not present in database
Track 2 not present in database
Track 3 not present in database
Track 4 not present in database
Track 5 not present in database
Track 6 not present in database
Track 7 not present in database
Track 8 not present in database
Track 9 not present in database
Track 10 not present in database
Track 11 not present in database
Track 12 not present in database
Track 13 not present in database
Track 14 not present in database
Track 15 not present in database
Track 16 not present in database
Track 17 not present in database
Track 18 not present in database
None of the tracks are present in the AccurateRip database
End of status report
---- CUETools DB Plugin V2.1.3
[CTDB TOCID: sZse8rxTNEpomiUD8TH_4G2eQ_k-] found, Submit result: already submitted
[e359ff7f] (2/3) Accurately ripped
[d5a4bc1f] (1/3) No match
==== Log checksum EAAAAF17A86DBEB7DF8F5479FB091C066317F0662B261393FC47DD431F5866A2 ====

Содержание индексной карты (.CUE)

CD1

REM GENRE Opera
REM DATE 1956
REM DISCID 61112C18
REM COMMENT "ExactAudioCopy v1.0b6"
PERFORMER "Donizetti"
TITLE "Lucia di Lammermoor, Cleva CD1"
FILE "Donizetti - Lucia di Lammermoor, Cleva CD1.ape" WAVE
TRACK 01 AUDIO
TITLE "Act 1: Introduzione "
PERFORMER "Donizetti"
INDEX 01 00:00:00
TRACK 02 AUDIO
TITLE "Pereorrete le spiagge vieine,"
PERFORMER "Donizetti"
INDEX 01 02:12:19
TRACK 03 AUDIO
TITLE "Tu sei turbato! "
PERFORMER "Donizetti"
INDEX 01 04:29:69
TRACK 04 AUDIO
TITLE "Cruda, funesta smania "
PERFORMER "Donizetti"
INDEX 01 07:28:34
TRACK 05 AUDIO
TITLE "Il tuo dubbio è ormai certezza. "
PERFORMER "Donizetti"
INDEX 01 09:40:57
TRACK 06 AUDIO
TITLE "La pietade in suo favore"
PERFORMER "Donizetti"
INDEX 01 11:59:18
TRACK 07 AUDIO
TITLE "Introduzione"
PERFORMER "Donizetti"
INDEX 01 13:33:04
TRACK 08 AUDIO
TITLE "Aneor non giunse!"
PERFORMER "Donizetti"
INDEX 01 16:34:44
TRACK 09 AUDIO
TITLE "Regnava nel silenzio"
PERFORMER "Donizetti"
INDEX 01 18:36:34
TRACK 10 AUDIO
TITLE "Quando, rapito in estasi"
PERFORMER "Donizetti"
INDEX 01 22:39:65
TRACK 11 AUDIO
TITLE "Egli s'avanza"
PERFORMER "Donizetti"
INDEX 01 26:21:32
TRACK 12 AUDIO
TITLE "Sulla tomba ehe rinserra
"
PERFORMER "Donizetti"
INDEX 01 29:00:48
TRACK 13 AUDIO
TITLE "Qui di sposa eterna fede,"
PERFORMER "Donizetti"
INDEX 01 32:13:13
TRACK 14 AUDIO
TITLE "Verranno a te sull'aure "
PERFORMER "Donizetti"
INDEX 01 34:42:60
TRACK 15 AUDIO
TITLE "Act 2: Lucia fra poco a te verrà. "
PERFORMER "Donizetti"
INDEX 01 39:16:26
TRACK 16 AUDIO
TITLE "Appressati, Lucia. "
PERFORMER "Donizetti"
INDEX 01 42:25:61
TRACK 17 AUDIO
TITLE "Soffriva nel piantà ... "
PERFORMER "Donizetti"
INDEX 01 47:43:68
TRACK 18 AUDIO
TITLE "Che fia ... "
PERFORMER "Donizetti"
INDEX 01 51:32:12
TRACK 19 AUDIO
TITLE "Se tradirmi tu potral. "
PERFORMER "Donizetti"
INDEX 01 53:01:21
TRACK 20 AUDIO
TITLE "Per te d'immenso giubilo"
PERFORMER "Donizetti"
INDEX 01 55:14:12
TRACK 21 AUDIO
TITLE "Per poco fra le tenebre "
PERFORMER "Donizetti"
INDEX 01 56:47:46
TRACK 22 AUDIO
TITLE "Dov'è Lucia? "
PERFORMER "Donizetti"
INDEX 01 59:47:28
TRACK 23 AUDIO
TITLE "Chi mi frena in tal momento?"
PERFORMER "Donizetti"
INDEX 01 64:16:19
TRACK 24 AUDIO
TITLE "T'allontana,sciagurato, "
PERFORMER "Donizetti"
INDEX 01 68:31:58

CD2

REM GENRE Opera
REM DATE 1956
REM DISCID F1118012
REM COMMENT "ExactAudioCopy v1.0b6"
PERFORMER "Donizetti"
TITLE "Lucia di Lammermoor, Cleva CD2"
FILE "Donizetti - Lucia di Lammermoor, Cleva CD2.ape" WAVE
TRACK 01 AUDIO
TITLE "Act 2: D'immenso giubilo"
PERFORMER "Donizetti"
INDEX 01 00:00:00
TRACK 02 AUDIO
TITLE "Cessi ... Ahi, cessi quel contento ..."
PERFORMER "Donizetti"
INDEX 01 01:50:04
TRACK 03 AUDIO
TITLE "Dalle stanze ove Lucia"
PERFORMER "Donizetti"
INDEX 01 02:24:52
TRACK 04 AUDIO
TITLE "Eccola! ... II dolce suono"
PERFORMER "Donizetti"
INDEX 01 06:55:29
TRACK 05 AUDIO
TITLE "Ardon gl'incensi ... "
PERFORMER "Donizetti"
INDEX 01 13:25:11
TRACK 06 AUDIO
TITLE "Spargi d'arnaro pianto"
PERFORMER "Donizetti"
INDEX 01 19:35:04
TRACK 07 AUDIO
TITLE "Tombe degli avi miei, "
PERFORMER "Donizetti"
INDEX 01 23:25:10
TRACK 08 AUDIO
TITLE "Fra poco a me ricovero "
PERFORMER "Donizetti"
INDEX 01 27:54:14
TRACK 09 AUDIO
TITLE "Oh meschina! oh fato orrendo! "
PERFORMER "Donizetti"
INDEX 01 31:18:22
TRACK 10 AUDIO
TITLE "Tu che a Dio spiegasti l'ali, "
PERFORMER "Donizetti"
INDEX 01 35:28:39
TRACK 11 AUDIO
TITLE "Bonus: Ancor non giunse!"
PERFORMER "Donizetti"
INDEX 00 40:13:53
INDEX 01 40:17:53
TRACK 12 AUDIO
TITLE "Regnava nel silenzio "
PERFORMER "Donizetti"
INDEX 01 42:02:60
TRACK 13 AUDIO
TITLE "Quando, rapito in estasi
"
PERFORMER "Donizetti"
INDEX 01 45:57:23
TRACK 14 AUDIO
TITLE "Lucia, perdona "
PERFORMER "Donizetti"
INDEX 01 51:15:44
TRACK 15 AUDIO
TITLE "Sulla tomba che ri nserra"
PERFORMER "Donizetti"
INDEX 01 53:44:43
TRACK 16 AUDIO
TITLE "Eccola! ... Il dolce suono "
PERFORMER "Donizetti"
INDEX 01 56:58:50
TRACK 17 AUDIO
TITLE "Ardon gl'incensi ..."
PERFORMER "Donizetti"
INDEX 01 64:31:08
TRACK 18 AUDIO
TITLE "Spargi d'amaro pianto "
PERFORMER "Donizetti"
INDEX 01 70:15:74



Показать сообщения:    

Текущее время: 07-Дек 11:39

Часовой пояс: UTC + 3


Вы не можете начинать темы
Вы не можете отвечать на сообщения
Вы не можете редактировать свои сообщения
Вы не можете удалять свои сообщения
Вы не можете голосовать в опросах
Вы не можете прикреплять файлы к сообщениям
Вы не можете скачивать файлы