(Musical, Operetta) Chaslin, A.L. Webber, Bernstein, Gershwin, Lehar, J. Strauss - Forever: Unforgettable Songs From Vienna, Broadway And Hollywood (Diana Damrau, David Charles Abell, RLPO) - 2013, FLAC (tracks+.cue), lossless


 

[Цитировать]

Diana Damrau - Forever: Unforgettable Songs From Vienna, Broadway And Hollywood
Жанр: Musical, Operetta
Страна-производитель диска: Франция
Год издания диска: 2013
Издатель (лейбл): Erato
Дата записи: 2014
Аудиокодек: FLAC
Тип рипа: tracks+.cue
Битрейт аудио: lossless
Продолжительность: 01:17:09
Источник: релизер (peotuvave)
Исполнители:
Diana Damrau, soprano,
Royal Liverpool Philharmonic Orchestra,
David Charles Abell, Conductor.
Recorded on December 9, 2012 & December 11, 2012 - December 12, 2012 & December 19, 2012 - December 20, 2012, at Emil Berliner Studios, Berlin.

Лог создания рипа

Exact Audio Copy V1.0 beta 3 from 29. August 2011
EAC extraction logfile from 9. October 2014, 18:58
Diana Damrau / Forever : Unforgettable Songs From Vienna, Broadway and Hollywood
Used drive : TSSTcorpCDDVDW TS-L633C Adapter: 0 ID: 1
Read mode : Secure
Utilize accurate stream : Yes
Defeat audio cache : Yes
Make use of C2 pointers : No
Read offset correction : 6
Overread into Lead-In and Lead-Out : No
Fill up missing offset samples with silence : Yes
Delete leading and trailing silent blocks : No
Null samples used in CRC calculations : Yes
Used interface : Native Win32 interface for Win NT & 2000
Gap handling : Appended to previous track
Used output format : User Defined Encoder
Selected bitrate : 1024 kBit/s
Quality : High
Add ID3 tag : No
Command line compressor : C:\Program Files (x86)\Trader's Little Helper\CmdlineApps\flac.exe
Additional command line options : -8 -V -T "ARTIST=%artist%" -T "TITLE=%title%" -T "ALBUM=%albumtitle%" -T "DATE=%year%" -T "TRACKNUMBER=%tracknr%" -T "GENRE=%genre%" -T "PERFORMER=%albuminterpret%" -T "COMPOSER=%composer%" %haslyrics%--tag-from-file=LYRICS="%lyricsfile%"%haslyrics% -T "ALBUMARTIST=%albumartist%" -T "DISCNUMBER=%cdnumber%" -T "TOTALDISCS=%totalcds%" -T "TOTALTRACKS=%numtracks%" -T "COMMENT=%comment%" %source% -o %dest%
TOC of the extracted CD
Track | Start | Length | Start sector | End sector
---------------------------------------------------------
1 | 0:00.00 | 3:55.06 | 0 | 17630
2 | 3:55.06 | 4:11.56 | 17631 | 36511
3 | 8:06.62 | 3:25.06 | 36512 | 51892
4 | 11:31.68 | 5:16.68 | 51893 | 75660
5 | 16:48.61 | 3:11.41 | 75661 | 90026
6 | 20:00.27 | 3:45.55 | 90027 | 106956
7 | 23:46.07 | 4:47.25 | 106957 | 128506
8 | 28:33.32 | 2:18.36 | 128507 | 138892
9 | 30:51.68 | 2:38.08 | 138893 | 150750
10 | 33:30.01 | 2:57.11 | 150751 | 164036
11 | 36:27.12 | 2:54.43 | 164037 | 177129
12 | 39:21.55 | 3:21.20 | 177130 | 192224
13 | 42:43.00 | 5:04.55 | 192225 | 215079
14 | 47:47.55 | 2:13.54 | 215080 | 225108
15 | 50:01.34 | 4:43.09 | 225109 | 246342
16 | 54:44.43 | 2:15.07 | 246343 | 256474
17 | 56:59.50 | 3:22.00 | 256475 | 271624
18 | 60:21.50 | 3:26.46 | 271625 | 287120
19 | 63:48.21 | 4:33.04 | 287121 | 307599
20 | 68:21.25 | 4:01.28 | 307600 | 325702
21 | 72:22.53 | 4:46.21 | 325703 | 347173
Track 1
Filename D:\Diana Damrau - Forever, Unforgettable Songs from Vienna, Broadway and Hollywood (2014) [FLAC]\01 - Vocalise- The ninth gate.wav
Pre-gap length 0:00:02.00
Peak level 98.2 %
Extraction speed 2.9 X
Track quality 100.0 %
Test CRC C9C9BB55
Copy CRC C9C9BB55
Accurately ripped (confidence 6) [347D10B4] (AR v2)
Copy OK
Track 2
Filename D:\Diana Damrau - Forever, Unforgettable Songs from Vienna, Broadway and Hollywood (2014) [FLAC]\02 - Höre ich Zigeunergeigen- Grafin Mariza.wav
Peak level 100.0 %
Extraction speed 3.2 X
Track quality 100.0 %
Test CRC AF158F94
Copy CRC AF158F94
Accurately ripped (confidence 6) [3ED2E4F0] (AR v2)
Copy OK
Track 3
Filename D:\Diana Damrau - Forever, Unforgettable Songs from Vienna, Broadway and Hollywood (2014) [FLAC]\03 - Strahlender Mond- Der Vetter aus Dingsda.wav
Peak level 98.6 %
Extraction speed 3.2 X
Track quality 100.0 %
Test CRC BF98ABF3
Copy CRC BF98ABF3
Accurately ripped (confidence 6) [BEB01A61] (AR v2)
Copy OK
Track 4
Filename D:\Diana Damrau - Forever, Unforgettable Songs from Vienna, Broadway and Hollywood (2014) [FLAC]\04 - Meine Lippen sie küssen so heiss- Giuditta.wav
Peak level 98.5 %
Extraction speed 3.7 X
Track quality 100.0 %
Test CRC BD4CE7CD
Copy CRC BD4CE7CD
Accurately ripped (confidence 6) [BAE32EEE] (AR v2)
Copy OK
Track 5
Filename D:\Diana Damrau - Forever, Unforgettable Songs from Vienna, Broadway and Hollywood (2014) [FLAC]\05 - Lippen schweigen- Die lustige Witwe.wav
Peak level 100.0 %
Extraction speed 2.9 X
Track quality 99.9 %
Test CRC A733E189
Copy CRC A733E189
Accurately ripped (confidence 6) [E6BEEDDB] (AR v2)
Copy OK
Track 6
Filename D:\Diana Damrau - Forever, Unforgettable Songs from Vienna, Broadway and Hollywood (2014) [FLAC]\06 - Mein Herr Marquis- Die Fledermaus.wav
Peak level 98.5 %
Extraction speed 3.2 X
Track quality 99.9 %
Test CRC 5624DC27
Copy CRC 5624DC27
Accurately ripped (confidence 6) [D7AF8009] (AR v2)
Copy OK
Track 7
Filename D:\Diana Damrau - Forever, Unforgettable Songs from Vienna, Broadway and Hollywood (2014) [FLAC]\07 - Czárdas- Die Fledermaus.wav
Peak level 98.4 %
Extraction speed 4.2 X
Track quality 100.0 %
Test CRC 9BC5E584
Copy CRC 9BC5E584
Accurately ripped (confidence 6) [E64D29FE] (AR v2)
Copy OK
Track 8
Filename D:\Diana Damrau - Forever, Unforgettable Songs from Vienna, Broadway and Hollywood (2014) [FLAC]\08 - Wäre det nich wundaschen- My fair lady.wav
Peak level 98.2 %
Extraction speed 3.8 X
Track quality 100.0 %
Test CRC 474E24C6
Copy CRC 474E24C6
Accurately ripped (confidence 6) [CADDBAB3] (AR v2)
Copy OK
Track 9
Filename D:\Diana Damrau - Forever, Unforgettable Songs from Vienna, Broadway and Hollywood (2014) [FLAC]\09 - I could have danced all night- My fair lady.wav
Peak level 98.7 %
Extraction speed 4.1 X
Track quality 100.0 %
Test CRC 3AAD3200
Copy CRC 3AAD3200
Accurately ripped (confidence 6) [762B72C1] (AR v2)
Copy OK
Track 10
Filename D:\Diana Damrau - Forever, Unforgettable Songs from Vienna, Broadway and Hollywood (2014) [FLAC]\10 - Grünfink und Nachtigall- Sweeney Todd.wav
Peak level 98.4 %
Extraction speed 4.2 X
Track quality 100.0 %
Test CRC 1B0EAD70
Copy CRC 1B0EAD70
Accurately ripped (confidence 6) [651FDB2E] (AR v2)
Copy OK
Track 11
Filename D:\Diana Damrau - Forever, Unforgettable Songs from Vienna, Broadway and Hollywood (2014) [FLAC]\11 - Summertime- Porgy and Bess.wav
Peak level 98.2 %
Extraction speed 4.3 X
Track quality 100.0 %
Test CRC D2DA4E7C
Copy CRC D2DA4E7C
Accurately ripped (confidence 6) [BB0E4BB1] (AR v2)
Copy OK
Track 12
Filename D:\Diana Damrau - Forever, Unforgettable Songs from Vienna, Broadway and Hollywood (2014) [FLAC]\12 - I’m in love with a wonderful guy- South Pacific.wav
Peak level 98.9 %
Extraction speed 4.5 X
Track quality 100.0 %
Test CRC C9A0910D
Copy CRC C9A0910D
Accurately ripped (confidence 6) [E3B12C2E] (AR v2)
Copy OK
Track 13
Filename D:\Diana Damrau - Forever, Unforgettable Songs from Vienna, Broadway and Hollywood (2014) [FLAC]\13 - Wishing you were somehow here again- Phantom of the opera.wav
Peak level 98.4 %
Extraction speed 5.0 X
Track quality 100.0 %
Test CRC CEEF0CC0
Copy CRC CEEF0CC0
Accurately ripped (confidence 6) [54141715] (AR v2)
Copy OK
Track 14
Filename D:\Diana Damrau - Forever, Unforgettable Songs from Vienna, Broadway and Hollywood (2014) [FLAC]\14 - I feel pretty- West side story.wav
Peak level 99.6 %
Extraction speed 4.4 X
Track quality 100.0 %
Test CRC 323510E5
Copy CRC 323510E5
Accurately ripped (confidence 6) [EAC5DC76] (AR v2)
Copy OK
Track 15
Filename D:\Diana Damrau - Forever, Unforgettable Songs from Vienna, Broadway and Hollywood (2014) [FLAC]\15 - Over the rainbow- The Wizard of Oz.wav
Peak level 98.7 %
Extraction speed 5.2 X
Track quality 100.0 %
Test CRC 383FFA69
Copy CRC 383FFA69
Accurately ripped (confidence 6) [E66CB28A] (AR v2)
Copy OK
Track 16
Filename D:\Diana Damrau - Forever, Unforgettable Songs from Vienna, Broadway and Hollywood (2014) [FLAC]\16 - All in the golden afternoon- Alice in wonderland.wav
Peak level 98.4 %
Extraction speed 3.4 X
Track quality 99.9 %
Test CRC 6A8B2324
Copy CRC 6A8B2324
Accurately ripped (confidence 6) [A4CFD7EE] (AR v2)
Copy OK
Track 17
Filename D:\Diana Damrau - Forever, Unforgettable Songs from Vienna, Broadway and Hollywood (2014) [FLAC]\17 - Ein Mensch zu sein- Arielle, die Meerjungfrau.wav
Peak level 98.6 %
Extraction speed 5.1 X
Track quality 100.0 %
Test CRC 190D4BB4
Copy CRC 190D4BB4
Accurately ripped (confidence 6) [8F0AADFF] (AR v2)
Copy OK
Track 18
Filename D:\Diana Damrau - Forever, Unforgettable Songs from Vienna, Broadway and Hollywood (2014) [FLAC]\18 - Someday my prince will come- Snow white.wav
Peak level 98.2 %
Extraction speed 5.2 X
Track quality 100.0 %
Test CRC 284388BE
Copy CRC 284388BE
Accurately ripped (confidence 6) [6D972F99] (AR v2)
Copy OK
Track 19
Filename D:\Diana Damrau - Forever, Unforgettable Songs from Vienna, Broadway and Hollywood (2014) [FLAC]\19 - Feed the birds- Mary Poppins.wav
Peak level 98.3 %
Extraction speed 5.5 X
Track quality 100.0 %
Test CRC 4C5D7F40
Copy CRC 4C5D7F40
Accurately ripped (confidence 6) [C7AA801A] (AR v2)
Copy OK
Track 20
Filename D:\Diana Damrau - Forever, Unforgettable Songs from Vienna, Broadway and Hollywood (2014) [FLAC]\20 - Walking in the air- The Snowman.wav
Peak level 98.5 %
Extraction speed 4.6 X
Track quality 99.9 %
Test CRC 44532A94
Copy CRC 44532A94
Accurately ripped (confidence 6) [B1953DC0] (AR v2)
Copy OK
Track 21
Filename D:\Diana Damrau - Forever, Unforgettable Songs from Vienna, Broadway and Hollywood (2014) [FLAC]\21 - Vocalise- Wuthering Heights.wav
Peak level 98.3 %
Extraction speed 5.9 X
Track quality 100.0 %
Test CRC 89B72B36
Copy CRC 89B72B36
Accurately ripped (confidence 6) [5439429A] (AR v2)
Copy OK
All tracks accurately ripped
No errors occurred
End of status report
==== Log checksum FA22727B4FADDEAAD984605365BC3DC0AD5EDD0808BC34FFB209621AD1646675 ====

Содержание индексной карты (.CUE)

REM GENRE Classical
REM DATE 2014
REM DISCID 12121415
REM COMMENT "ExactAudioCopy v1.0b3"
CATALOG 5099960266620
PERFORMER "Diana Damrau"
TITLE "Forever : Unforgettable Songs From Vienna, Broadway and Hollywood"
FILE "01 - Vocalise- The ninth gate.wav" WAVE
TRACK 01 AUDIO
TITLE "Vocalise: The ninth gate "
PERFORMER "Diana Damrau"
ISRC GBAYC1302275
INDEX 01 00:00:00
FILE "02 - Hцre ich Zigeunergeigen- Grafin Mariza.wav" WAVE
TRACK 02 AUDIO
TITLE "Hцre ich Zigeunergeigen: Grafin Mariza "
PERFORMER "Diana Damrau"
ISRC GBAYC1302276
INDEX 01 00:00:00
FILE "03 - Strahlender Mond- Der Vetter aus Dingsda.wav" WAVE
TRACK 03 AUDIO
TITLE "Strahlender Mond: Der Vetter aus Dingsda "
PERFORMER "Diana Damrau"
ISRC GBAYC1302277
INDEX 01 00:00:00
FILE "04 - Meine Lippen sie kьssen so heiss- Giuditta.wav" WAVE
TRACK 04 AUDIO
TITLE "Meine Lippen sie kьssen so heiss: Giuditta"
PERFORMER "Diana Damrau"
ISRC GBAYC1302278
INDEX 01 00:00:00
FILE "05 - Lippen schweigen- Die lustige Witwe.wav" WAVE
TRACK 05 AUDIO
TITLE "Lippen schweigen: Die lustige Witwe "
PERFORMER "Diana Damrau"
ISRC GBAYC1302279
INDEX 01 00:00:00
FILE "06 - Mein Herr Marquis- Die Fledermaus.wav" WAVE
TRACK 06 AUDIO
TITLE "Mein Herr Marquis: Die Fledermaus "
PERFORMER "Diana Damrau"
ISRC GBAYC1302280
INDEX 01 00:00:00
FILE "07 - Czбrdas- Die Fledermaus.wav" WAVE
TRACK 07 AUDIO
TITLE "Czбrdas: Die Fledermaus "
PERFORMER "Diana Damrau"
ISRC GBAYC1302281
INDEX 01 00:00:00
FILE "08 - Wдre det nich wundaschen- My fair lady.wav" WAVE
TRACK 08 AUDIO
TITLE "Wдre det nich wundaschen: My fair lady "
PERFORMER "Diana Damrau"
ISRC GBAYC1302282
INDEX 01 00:00:00
FILE "09 - I could have danced all night- My fair lady.wav" WAVE
TRACK 09 AUDIO
TITLE "I could have danced all night: My fair lady "
PERFORMER "Diana Damrau"
ISRC GBAYC1302283
INDEX 01 00:00:00
FILE "10 - Grьnfink und Nachtigall- Sweeney Todd.wav" WAVE
TRACK 10 AUDIO
TITLE "Grьnfink und Nachtigall: Sweeney Todd "
PERFORMER "Diana Damrau"
ISRC GBAYC1302284
INDEX 01 00:00:00
FILE "11 - Summertime- Porgy and Bess.wav" WAVE
TRACK 11 AUDIO
TITLE "Summertime: Porgy and Bess "
PERFORMER "Diana Damrau"
ISRC GBAYC1302285
INDEX 01 00:00:00
FILE "12 - I’m in love with a wonderful guy- South Pacific.wav" WAVE
TRACK 12 AUDIO
TITLE "I’m in love with a wonderful guy: South Pacific "
PERFORMER "Diana Damrau"
ISRC GBAYC1302286
INDEX 01 00:00:00
FILE "13 - Wishing you were somehow here again- Phantom of the opera.wav" WAVE
TRACK 13 AUDIO
TITLE "Wishing you were somehow here again: Phantom of the opera "
PERFORMER "Diana Damrau"
ISRC GBAYC1302287
INDEX 01 00:00:00
FILE "14 - I feel pretty- West side story.wav" WAVE
TRACK 14 AUDIO
TITLE "I feel pretty: West side story "
PERFORMER "Diana Damrau"
ISRC GBAYC1302288
INDEX 01 00:00:00
FILE "15 - Over the rainbow- The Wizard of Oz.wav" WAVE
TRACK 15 AUDIO
TITLE "Over the rainbow: The Wizard of Oz "
PERFORMER "Diana Damrau"
ISRC GBAYC1302289
INDEX 01 00:00:00
FILE "16 - All in the golden afternoon- Alice in wonderland.wav" WAVE
TRACK 16 AUDIO
TITLE "All in the golden afternoon: Alice in wonderland "
PERFORMER "Diana Damrau"
ISRC GBAYC1302290
INDEX 01 00:00:00
FILE "17 - Ein Mensch zu sein- Arielle, die Meerjungfrau.wav" WAVE
TRACK 17 AUDIO
TITLE "Ein Mensch zu sein: Arielle, die Meerjungfrau "
PERFORMER "Diana Damrau"
ISRC GBAYC1302291
INDEX 01 00:00:00
FILE "18 - Someday my prince will come- Snow white.wav" WAVE
TRACK 18 AUDIO
TITLE "Someday my prince will come: Snow white "
PERFORMER "Diana Damrau"
ISRC GBAYC1302292
INDEX 01 00:00:00
FILE "19 - Feed the birds- Mary Poppins.wav" WAVE
TRACK 19 AUDIO
TITLE "Feed the birds: Mary Poppins "
PERFORMER "Diana Damrau"
ISRC GBAYC1302293
INDEX 01 00:00:00
FILE "20 - Walking in the air- The Snowman.wav" WAVE
TRACK 20 AUDIO
TITLE "Walking in the air: The Snowman "
PERFORMER "Diana Damrau"
ISRC GBAYC1302294
INDEX 01 00:00:00
FILE "21 - Vocalise- Wuthering Heights.wav" WAVE
TRACK 21 AUDIO
TITLE "Vocalise: Wuthering Heights "
PERFORMER "Diana Damrau"
ISRC GBAYC1302295
INDEX 01 00:00:00

Треклист

01 Wojciech Kilar - Vocalise: The ninth gate
02 Franz Lehár - Höre ich Zigeunergeigen: Grafin Mariza
03 Eduard Künneke - Strahlender Mond: Der Vetter aus Dingsda
04 Franz Lehár - Meine Lippen sie küssen so heiss: Giuditta
05 Franz Lehár - Lippen schweigen: Die lustige Witwe
06 Johann Strauss II - Mein Herr Marquis: Die Fledermaus
07 Johann Strauss II - Czárdas: Die Fledermaus
08 Frederick Loewe - Wäre det nich wundaschen: My fair lady
09 Frederick Loewe - I could have danced all night: My fair lady
10 Stephen Sondheim - Grünfink und Nachtigall: Sweeney Todd
11 George Gershwin - Summertime: Porgy and Bess
12 Richard Rodgers - I’m in love with a wonderful guy: South Pacific
13 Andrew Lloyd Webber - Wishing you were somehow here again: Phantom of the opera
14 Leonard Bernstein - I feel pretty: West side story
15 Harold Arlen - Over the rainbow: The Wizard of Oz
16 Sammy Fain - All in the golden afternoon: Alice in wonderland
17 Alan Menken - Ein Mensch zu sein: Arielle, die Meerjungfrau
18 Frank Churchill - Someday my prince will come: Snow white
19 Robert B. Sherman - Feed the birds: Mary Poppins
20 Howard Blake - Walking in the air: The Snowman
21 Frédéric Chaslin - Cathy's Vocalise: Wuthering Heights
22 Frederick Loewe - Ich hätt getanzt heut’ Nacht: My fair lady



Показать сообщения:    

Текущее время: 08-Дек 23:11

Часовой пояс: UTC + 3


Вы не можете начинать темы
Вы не можете отвечать на сообщения
Вы не можете редактировать свои сообщения
Вы не можете удалять свои сообщения
Вы не можете голосовать в опросах
Вы не можете прикреплять файлы к сообщениям
Вы не можете скачивать файлы