(Classical) Андрес Исаси – Симфонические поэмы / Andres Isasi – Berceuse Tragica, Erotische Dichtung, Zharufa, Das Orakel, Die Sunde (Jonathan Carney, Enrique Garcia Asensio) [Basque music collection, Vol. 04] - 2000, FLAC (tracks+.cue) lossless


 

[Цитировать]

Андрес Исаси – «Трагическая колыбельная» и симфонические поэмы / Andrés Isasi – Berceuse Tragica, Erotische Dichtung, Zharufa, Das Orakel, Die Sünde (Jonathan Carney, Enrique García Asensio)
Жанр: Classical
Страна-производитель диска: Швейцария
Год издания диска: 2000
Издатель (лейбл): Claves
Номер по каталогу: CLAVES CD 50-2007
Дата записи: 4 — 7 сентября 2000 г., Сан-Себастьян.
Аудиокодек: FLAC
Тип рипа: tracks+.cue
Битрейт аудио: lossless
Продолжительность: 00:58:41
Источник: mostlymodernclassicalmusic
Наличие сканов в содержимом раздачи: да (буклет целиком)
Треклист:-Андрес Исаси-и-Линарес, маркиз де Барамбьо (1890 — 1940).-01. «Трагическая колыбельная» (Berceuse trágica) fis-moll для скрипки с оркестром, op. 22 (1914) [08:37].
Симфонические поэмы.
02. «Эротическая поэма» (Erotische Dichtung) D-dur, op. 14 (1912) [08:29].
03. «Заруфа» (Zharufa) F-dur, op. 12 (1911) [15:54].
04. «Оракул» (Das Orakel) c-moll, op. 18 (1913) [14:56].
05. «Грех» (Die Sünde) g-moll, op. 19 (1913) [10:46].-Исполнители:
Jonathan Carney (скрипка, 1).
Euskadiko Orkestra Sinfonikoa (Баскский симфонический оркестр).
Дирижер Enrique García Asensio.-

Лог создания рипа

Exact Audio Copy V1.0 beta 3 from 29. August 2011
EAC extraction logfile from 22. August 2015, 0:04
Isasi, Andres / Ochestral Works
Used drive : TSSTcorpCDDVDW SH-S223C Adapter: 0 ID: 1
Read mode : Secure
Utilize accurate stream : Yes
Defeat audio cache : Yes
Make use of C2 pointers : No
Read offset correction : 697
Overread into Lead-In and Lead-Out : No
Fill up missing offset samples with silence : Yes
Delete leading and trailing silent blocks : No
Null samples used in CRC calculations : Yes
Used interface : Native Win32 interface for Win NT & 2000
Gap handling : Appended to previous track
Used output format : User Defined Encoder
Selected bitrate : 1024 kBit/s
Quality : High
Add ID3 tag : No
Command line compressor : C:\Program Files (x86)\Exact Audio Copy\FLAC\FLAC.EXE
Additional command line options : -V -0 -T "Comment=Ripped by Tapaz9/Johnston" -T "artist=%artist%" -T "title=%title%" -T "album=%albumtitle%" -T "date=%year%" -T "tracknumber=%tracknr%" -T "genre=%genre%" %source%
TOC of the extracted CD
Track | Start | Length | Start sector | End sector
---------------------------------------------------------
1 | 0:00.00 | 8:37.62 | 0 | 38836
2 | 8:37.62 | 8:29.70 | 38837 | 77081
3 | 17:07.57 | 15:55.60 | 77082 | 148766
4 | 33:03.42 | 14:57.00 | 148767 | 216041
5 | 48:00.42 | 10:47.43 | 216042 | 264609
Track 1
Filename F:\Musique\Isasi, Andres\Isasi_OrchestralWorks\01 - BERCEUSE TRAGICA PARA VIOLIN Y ORQUESTA OP 22 N1 - 1914.wav
Pre-gap length 0:00:02.00
Peak level 75.3 %
Extraction speed 11.9 X
Track quality 100.0 %
Copy CRC 7BB226D0
Copy OK
Track 2
Filename F:\Musique\Isasi, Andres\Isasi_OrchestralWorks\02 - EROTISCHE DICHTUNG OP 14 - 1912.wav
Peak level 75.6 %
Extraction speed 8.6 X
Track quality 99.9 %
Copy CRC 35E21647
Copy OK
Track 3
Filename F:\Musique\Isasi, Andres\Isasi_OrchestralWorks\03 - ZHARUFA OP 12 - 1911.wav
Peak level 62.6 %
Extraction speed 11.1 X
Track quality 99.9 %
Copy CRC 30599BF8
Copy OK
Track 4
Filename F:\Musique\Isasi, Andres\Isasi_OrchestralWorks\04 - DAS ORAKEL OP 18 - 1913.wav
Peak level 80.8 %
Extraction speed 13.9 X
Track quality 100.0 %
Copy CRC 659650AB
Copy OK
Track 5
Filename F:\Musique\Isasi, Andres\Isasi_OrchestralWorks\05 - DIE SUNDE OP 19 - 1913.wav
Peak level 89.6 %
Extraction speed 13.9 X
Track quality 100.0 %
Copy CRC 70A5FE05
Copy OK
No errors occurred
End of status report
==== Log checksum A8BD007EADABD5C92292C541584625B1360C5127F56E160276A7ACED9B52C037 ====

Содержание индексной карты (.CUE)

REM GENRE Classical
REM DATE 2000
REM DISCID 480DC805
REM COMMENT "ExactAudioCopy v1.0b3"
PERFORMER "Enrique Garcia Asensio"
TITLE "Basque Music Collection, Vol. 04 – Andres Isasi"
FILE "01 - Berceuse tragica para violin y orquesta, Op. 22 no. 1 (1914).wav" WAVE
TRACK 01 AUDIO
TITLE "Berceuse tragica para violin y orquesta, Op. 22 no. 1 (1914)"
PERFORMER "Jonathan Carney & Enrique Garcia Asensio"
INDEX 01 00:00:00
FILE "02 - Erotische Dichtung, Op. 14 (1912).wav" WAVE
TRACK 02 AUDIO
TITLE "Erotische Dichtung, Op. 14 (1912)"
PERFORMER "Enrique Garcia Asensio"
INDEX 01 00:00:00
FILE "03 - Zharufa, Op. 12 (1911).wav" WAVE
TRACK 03 AUDIO
TITLE "Zharufa, Op. 12 (1911)"
PERFORMER "Enrique Garcia Asensio"
INDEX 01 00:00:00
FILE "04 - Das Orakel, Op. 18 (1913).wav" WAVE
TRACK 04 AUDIO
TITLE "Das Orakel, Op. 18 (1913)"
PERFORMER "Enrique Garcia Asensio"
INDEX 01 00:00:00
FILE "05 - Die Sunde, Op. 19 (1913).wav" WAVE
TRACK 05 AUDIO
TITLE "Die Sunde, Op. 19 (1913)"
PERFORMER "Enrique Garcia Asensio"
INDEX 01 00:00:00
-



Показать сообщения:    

Текущее время: 10-Дек 19:42

Часовой пояс: UTC + 3


Вы не можете начинать темы
Вы не можете отвечать на сообщения
Вы не можете редактировать свои сообщения
Вы не можете удалять свои сообщения
Вы не можете голосовать в опросах
Вы не можете прикреплять файлы к сообщениям
Вы не можете скачивать файлы