Татьяна Васильева. Творческий вечер (Татьяна Васильева) [2013 г., Творческий вечер, SATRip] Центральный Дом литераторов


Статистика раздачи [Обновить пиров]
Размер:  1.09 GB   |    Зарегистрирован:  8 месяцев 13 дней   |    Скачан:  0 раз

Полного источника не было: Никогда

 
   
 
 
 

[Цитировать]

Татьяна Васильева. Творческий вечер Год выпуска: 2013.
Жанр: Творческий вечер.
Продолжительность: 01:52:04.
Режиссер вечера: народная артистка России Татьяна Васильева.
Исполнитель: народная артистка России Татьяна Васильева.
В вечере принимает участие заслуженный артист России, заслуженный артист Чувашии, заслуженный артист Грузии Станислав Садальский.
Описание:
Актриса Татьяна Васильева с годами становится все интересней.
Как раньше, так и сейчас, она – одна из любимых и всегда востребованных актрис.
В программе вечера:
рассказ Татьяны Васильевой о своем пути в кино и театре;
воспоминания смешных казусов и баек;
истории о встречах с режиссерами, партнерами по сцене, драматургами;
отрывки из спектакля "Голая правда".
Татьяна Васильева имеет в своем творческом багаже премии:
"Ника", "Кумир", "Золотой Овен",
приз фестиваля "Кинотавр" за лучшее исполнение женской роли,
"Орден почета" за вклад в российское киноискусство.

Дополнительная информация:
Страна: Россия .
Выпущено: Центральный Дом литераторов.
Автор сценария: заслуженный артист России, заслуженный артист Чувашии, заслуженный артист Грузии Станислав Садальский.
Видеоверсию подготовил: Сергей Арзуманян.
Релиз

Качество видео:...SATRip
Формат:.................AVI
Видео:..720x400 (1.80:1), 25 fps, XviD build 73 ~1253 kbps avg, 0.17 bit/pixel
Аудио:..44.100 kHz, MPEG Layer 3, 2 ch, ~128.00 kbps avg

Отчет MediaInfo

Общее
Полное имя : Tatiana.Vasileva.tvorcheskij.vecher.2013.XviD.TVRip.fenixclub.avi
Format : AVI
Format/Info : Audio Video Interleave
File size : 1.09 GiB
Duration : 1h 52mn
Overall bit rate : 1 391 Kbps
Video
ID : 0
Format : MPEG-4 Visual
Format profile : Advanced Simple@L5
Format settings, BVOP : 2
Format settings, QPel : No
Format settings, GMC : No warppoints
Format settings, Matrix : Default (H.263)
Codec ID : XVID
Codec ID/Hint : XviD
Duration : 1h 52mn
Bit rate : 1 254 Kbps
Width : 720 pixels
Height : 400 pixels
Display aspect ratio : 16:9
Frame rate : 25.000 fps
Color space : YUV
Chroma subsampling : 4:2:0
Bit depth : 8 bits
Scan type : Progressive
Compression mode : Lossy
Bits/(Pixel*Frame) : 0.174
Stream size : 1 005 MiB (90%)
Writing library : XviD 73
Audio
ID : 1
Format : MPEG Audio
Format version : Version 1
Format profile : Layer 3
Mode : Joint stereo
Mode extension : MS Stereo
Codec ID : 55
Codec ID/Hint : MP3
Duration : 1h 52mn
Bit rate mode : Constant
Bit rate : 128 Kbps
Channel(s) : 2 channels
Sampling rate : 44.1 KHz
Compression mode : Lossy
Stream size : 103 MiB (9%)
Alignment : Split accross interleaves
Interleave, duration : 40 ms (1.00 video frame)
Interleave, preload duratio : 500 ms.

Скриншоты

Альтернативный хост

Торрент перезалит 26.08.2015 в 22:18 в связи с заменой рипа.
[teatrix.ru].t22101.torrent 
Торрент: Зарегистрирован [ 2016-03-20 12:44 ] · 5C23CEFAB90D5613B67E692D607D6BED648464BE

Скачать .torrent

Скачать

11 KB

Статус: проверено
Скачан: 0 раз
Размер: 1.09 GB
terms.php



Быстрый ответ

Имя:

      
Для отправки сообщений необходимо включить JavaScript
Показать сообщения:    

Текущее время: 02-Дек 21:13

Часовой пояс: UTC + 3


Вы можете начинать темы
Вы можете отвечать на сообщения
Вы не можете редактировать свои сообщения
Вы не можете удалять свои сообщения
Вы не можете голосовать в опросах
Вы не можете прикреплять файлы к сообщениям
Вы можете скачивать файлы