(Opera, Vocal) Henri Legay - Arias [Performed in French] (Tenor Operatic Scenes by Delibes, Boieldieu, Massenet, Gounod, Flotow, Bizet, Lalo, Thomas, Verdi, Meyerbeer) - 2000, FLAC (tracks), lossless


 

[Цитировать]

Henri Legay - Arias [Performed in French]
Жанр: Opera, Vocal
Страна-производитель диска: Франция
Год издания диска: 2000
Издатель (лейбл): Malibran
Дата записи: Various
Аудиокодек: FLAC
Тип рипа: tracks
Битрейт аудио: lossless
Продолжительность: 69:17
Источник: релизер (Guillermo)
Исполнители:
Henri Legay, tenor.

Лог создания рипа

Exact Audio Copy V1.0 beta 3 from 29. August 2011
EAC extraction logfile from 3. August 2015, 19:19
Artista desconocido / Título desconocido
Used drive : HL-DT-STDVDRAM GH24NSC0 Adapter: 3 ID: 0
Read mode : Secure
Utilize accurate stream : Yes
Defeat audio cache : Yes
Make use of C2 pointers : No
Read offset correction : 6
Overread into Lead-In and Lead-Out : No
Fill up missing offset samples with silence : Yes
Delete leading and trailing silent blocks : No
Null samples used in CRC calculations : Yes
Used interface : Native Win32 interface for Win NT & 2000
Gap handling : Appended to previous track
Used output format : User Defined Encoder
Selected bitrate : 768 kBit/s
Quality : High
Add ID3 tag : No
Command line compressor : C:\Program Files (x86)\Exact Audio Copy\FLAC\FLAC.EXE
Additional command line options : -8 -V -T "ARTIST=%artist%" -T "TITLE=%title%" -T "ALBUM=%albumtitle%" -T "DATE=%year%" -T "TRACKNUMBER=%tracknr%" -T "GENRE=%genre%" -T "PERFORMER=%albuminterpret%" -T "COMPOSER=%composer%" %haslyrics%--tag-from-file=LYRICS="%lyricsfile%"%haslyrics% -T "ALBUMARTIST=%albumartist%" -T "DISCNUMBER=%cdnumber%" -T "TOTALDISCS=%totalcds%" -T "TOTALTRACKS=%numtracks%" -T "COMMENT=%comment%" %source% -o %dest%
TOC of the extracted CD
Track | Start | Length | Start sector | End sector
---------------------------------------------------------
1 | 0:00.00 | 4:25.19 | 0 | 19893
2 | 4:25.19 | 5:48.26 | 19894 | 46019
3 | 10:13.45 | 3:58.71 | 46020 | 63940
4 | 14:12.41 | 2:18.49 | 63941 | 74339
5 | 16:31.15 | 4:07.22 | 74340 | 92886
6 | 20:38.37 | 2:08.17 | 92887 | 102503
7 | 22:46.54 | 5:27.64 | 102504 | 127092
8 | 28:14.43 | 3:43.08 | 127093 | 143825
9 | 31:57.51 | 3:21.45 | 143826 | 158945
10 | 35:19.21 | 3:35.71 | 158946 | 175141
11 | 38:55.17 | 3:35.63 | 175142 | 191329
12 | 42:31.05 | 4:13.05 | 191330 | 210309
13 | 46:44.10 | 2:45.66 | 210310 | 222750
14 | 49:30.01 | 4:03.19 | 222751 | 240994
15 | 53:33.20 | 4:22.50 | 240995 | 260694
16 | 57:55.70 | 4:00.13 | 260695 | 278707
17 | 61:56.08 | 2:14.53 | 278708 | 288810
18 | 64:10.61 | 4:37.19 | 288811 | 309604
19 | 68:48.05 | 2:35.36 | 309605 | 321265
20 | 71:23.41 | 3:42.37 | 321266 | 337952
21 | 75:06.03 | 4:36.17 | 337953 | 358669
Track 1
Filename f:\Users\Guillermo\Desktop\EAC convertidos\01 Pista01.wav
Pre-gap length 0:00:02.00
Peak level 97.7 %
Extraction speed 1.7 X
Track quality 100.0 %
Test CRC DC0563B4
Copy CRC DC0563B4
Copy OK
Track 2
Filename f:\Users\Guillermo\Desktop\EAC convertidos\02 Pista02.wav
Pre-gap length 0:00:02.00
Peak level 97.7 %
Extraction speed 2.0 X
Track quality 100.0 %
Test CRC B3502EF1
Copy CRC B3502EF1
Copy OK
Track 3
Filename f:\Users\Guillermo\Desktop\EAC convertidos\03 Pista03.wav
Pre-gap length 0:00:02.00
Peak level 97.7 %
Extraction speed 2.0 X
Track quality 100.0 %
Test CRC 54E867B5
Copy CRC 54E867B5
Copy OK
Track 4
Filename f:\Users\Guillermo\Desktop\EAC convertidos\04 Pista04.wav
Pre-gap length 0:00:02.00
Peak level 97.7 %
Extraction speed 1.8 X
Track quality 100.0 %
Test CRC 155D2BCD
Copy CRC 155D2BCD
Copy OK
Track 5
Filename f:\Users\Guillermo\Desktop\EAC convertidos\05 Pista05.wav
Pre-gap length 0:00:02.00
Peak level 97.7 %
Extraction speed 1.9 X
Track quality 99.9 %
Test CRC 10B014E9
Copy CRC 10B014E9
Copy OK
Track 6
Filename f:\Users\Guillermo\Desktop\EAC convertidos\06 Pista06.wav
Pre-gap length 0:00:02.00
Peak level 97.7 %
Extraction speed 1.9 X
Track quality 100.0 %
Test CRC 1C9284DB
Copy CRC 1C9284DB
Copy OK
Track 7
Filename f:\Users\Guillermo\Desktop\EAC convertidos\07 Pista07.wav
Pre-gap length 0:00:02.00
Peak level 66.9 %
Extraction speed 2.6 X
Track quality 100.0 %
Test CRC 38564627
Copy CRC 38564627
Copy OK
Track 8
Filename f:\Users\Guillermo\Desktop\EAC convertidos\08 Pista08.wav
Pre-gap length 0:00:02.00
Peak level 99.3 %
Extraction speed 2.5 X
Track quality 100.0 %
Test CRC E86201E6
Copy CRC E86201E6
Copy OK
Track 9
Filename f:\Users\Guillermo\Desktop\EAC convertidos\09 Pista09.wav
Pre-gap length 0:00:02.00
Peak level 97.7 %
Extraction speed 2.6 X
Track quality 100.0 %
Test CRC C109F2E2
Copy CRC C109F2E2
Copy OK
Track 10
Filename f:\Users\Guillermo\Desktop\EAC convertidos\10 Pista10.wav
Pre-gap length 0:00:02.00
Peak level 97.7 %
Extraction speed 2.7 X
Track quality 100.0 %
Test CRC 9640B363
Copy CRC 9640B363
Copy OK
Track 11
Filename f:\Users\Guillermo\Desktop\EAC convertidos\11 Pista11.wav
Pre-gap length 0:00:02.00
Peak level 97.7 %
Extraction speed 2.8 X
Track quality 100.0 %
Test CRC 71E5FDA4
Copy CRC 71E5FDA4
Copy OK
Track 12
Filename f:\Users\Guillermo\Desktop\EAC convertidos\12 Pista12.wav
Pre-gap length 0:00:02.00
Peak level 97.7 %
Extraction speed 3.0 X
Track quality 100.0 %
Test CRC 5E1E21A1
Copy CRC 5E1E21A1
Copy OK
Track 13
Filename f:\Users\Guillermo\Desktop\EAC convertidos\13 Pista13.wav
Pre-gap length 0:00:02.00
Peak level 97.7 %
Extraction speed 2.8 X
Track quality 100.0 %
Test CRC 6344CD56
Copy CRC 6344CD56
Copy OK
Track 14
Filename f:\Users\Guillermo\Desktop\EAC convertidos\14 Pista14.wav
Pre-gap length 0:00:02.00
Peak level 99.3 %
Extraction speed 3.1 X
Track quality 100.0 %
Test CRC 28306E4E
Copy CRC 28306E4E
Copy OK
Track 15
Filename f:\Users\Guillermo\Desktop\EAC convertidos\15 Pista15.wav
Pre-gap length 0:00:02.00
Peak level 97.7 %
Extraction speed 3.2 X
Track quality 100.0 %
Test CRC 4E65A92D
Copy CRC 4E65A92D
Copy OK
Track 16
Filename f:\Users\Guillermo\Desktop\EAC convertidos\16 Pista16.wav
Pre-gap length 0:00:02.00
Peak level 97.7 %
Extraction speed 3.3 X
Track quality 100.0 %
Test CRC 71C08A2A
Copy CRC 71C08A2A
Copy OK
Track 17
Filename f:\Users\Guillermo\Desktop\EAC convertidos\17 Pista17.wav
Pre-gap length 0:00:02.00
Peak level 97.7 %
Extraction speed 2.9 X
Track quality 100.0 %
Test CRC 240C5822
Copy CRC 240C5822
Copy OK
Track 18
Filename f:\Users\Guillermo\Desktop\EAC convertidos\18 Pista18.wav
Pre-gap length 0:00:02.00
Peak level 97.7 %
Extraction speed 3.0 X
Track quality 99.9 %
Test CRC 1AAAF27E
Copy CRC 1AAAF27E
Copy OK
Track 19
Filename f:\Users\Guillermo\Desktop\EAC convertidos\19 Pista19.wav
Pre-gap length 0:00:02.00
Peak level 97.7 %
Extraction speed 2.5 X
Track quality 99.8 %
Test CRC E53588F9
Copy CRC E53588F9
Copy OK
Track 20
Filename f:\Users\Guillermo\Desktop\EAC convertidos\20 Pista20.wav
Pre-gap length 0:00:02.00
Peak level 97.7 %
Extraction speed 3.5 X
Track quality 100.0 %
Test CRC 6D11C159
Copy CRC 6D11C159
Copy OK
Track 21
Filename f:\Users\Guillermo\Desktop\EAC convertidos\21 Pista21.wav
Pre-gap length 0:00:02.00
Peak level 100.0 %
Extraction speed 3.7 X
Track quality 100.0 %
Test CRC 20F67C11
Copy CRC 20F67C11
Copy OK
No errors occurred
End of status report
==== Log checksum CE543B55B6E86EA5E42D9508670DAE3A5D3C2BBA88A82D484E9C22DD553A6CE1 ====

Треклист

François Adrien Boïeldieu - La Dame Blanche:
01. Ah quel plaisir
02. Viens, gentille dame
03. Étienne Nicolas Méhul - Joseph: Non, non, l’Eternel
Giuseppe Verdi:
04. Rigoletto: Comme la plume au vent
05. La Traviata: Tout me le dit, cher ange
Leo Delibes - Lakmé:
06. Ah viens dans la forêt profonde !
07. Fantaisie aux divins mensonges
08. Georges Bizet - La Jolie Fille de Perth: Partout des cris de joie
09. Friedrich von Flotow - Martha: A mes yeux enchantés
10. Edouard Lalo - Le Roi d’Ys: Vainement, ma bien-aimée
Gules Massenet:
11. Werther: Je ne sais si je veille
12. Manon: Ah fuyez, douce image
Ambroise Thomas - Mignon
13. Adieu, Mignon
14. Elle ne croyait pas
Charles Gounod:
15. Faust: Salut, demeure chaste et pure
16. Mireille: La brise est douce
17. P. I. Tchaïkovsky - La Dame de Pique: Pardon, divine créature
18. Giacomo Meyerbeer - Les Huguenots: Tu l’as dit
19. Henri Rabaud - Marouf: Viens, mon épouse
20. W. A. Mozart - Don Giovanni: Il mio tesoro
21. Richard Wagner - Lohengrin: Aux bords lointains



Показать сообщения:    

Текущее время: 07-Дек 21:22

Часовой пояс: UTC + 3


Вы не можете начинать темы
Вы не можете отвечать на сообщения
Вы не можете редактировать свои сообщения
Вы не можете удалять свои сообщения
Вы не можете голосовать в опросах
Вы не можете прикреплять файлы к сообщениям
Вы не можете скачивать файлы