(Opera) Bellini - I Puritani (Callas, di Stefano, Panerai, Rossi-Lemeni - Coro & Orchestra del Teatro alla Scala di Milano, Serafin) - 1992, APE (image+.cue) lossless


 

[Цитировать]

Vincenzo Bellini (1801-1835) - I Puritani
Жанр: Opera
Страна-производитель диска: EU
Год издания диска: 1992
Издатель (лейбл): EMI
Номер по каталогу: 7 47308 8
Дата записи: 1953
Аудиокодек: APE
Тип рипа: image+.cue
Битрейт аудио: lossless
Продолжительность: 69'07+73'14
Источник: собственный рип
Наличие сканов в содержимом раздачи: да
Треклист:

CD1

1. Introduzione
Act 1
2. All'erte! All'erta!
3. O di Cromvel guerrieri
4. A festa!
5. Or dove fuggo io mai?
6. Ah! per sempre io ti perdei
7. Bel sogno beato
8. O amato zio, o mio secondo padre!
9. Sai com'arde in petto mio
10. Odi ... Qual suon si desta?
11. Ad Arturo onore
12. A te, o cara, amor talora
13. Il rito augusto si compia senza mei!
14. Com'io, vi unisca
15. Son vergin vezzosa
16. Sulla verginea
17. Ferma invan rapir pretendi
18. E già al ponte - passa il forte
19. Ah, vieni al tempio ... fedele Arturo
20. Ma tu già mi fuggi?

CD2

Act 2
1. Ah!... dolor! Ah terror!
2. Qual novella?
3. Cinta di fiori e col ben crin disciolto
4. E di morte lo stral non sarà lento
5. O rendetemi la speme ... Qui la voce sua soave mi chiamava
6. Vien diletto, è in ciel la luna
7. Il rival salvar tu dêi
8. Se tra il buio un fantasma vedrai
9. Riccardo! Riccardo!
10. Suoni la tromba e intrepido
Act 3
11. Son salvo. Alfin son tua
12. A una fonte afflitto e solo
13. Qual suon! Alcun s'appressa!
14. Son già lontani
15. Finì! Me lassa!
16. Ch'ei provò lontan da me?
17. Vieni, fra queste braccia
18. Alto là! Fedel drappello!
19. Cavalier, ti colse il Dio
20. Credeasi, misera
21. Suon d'araldi?
Исполнители:
Vincenzo Bellini (1801-1835) - I Puritani
Opera in three acts
Libretto: Carlo Pepoli
Maria Callas (Elvira)
Giuseppe di Stefano (Arturo)
Rolando Panerai (Riccardo)
Nicola Rossi-Lemeni (Giorgio)
Angelo Mercuriali (Bruno)
Carlo Forti (Gualtiero Valton)
Aurora Cattelani (Enrichetta)
Coro & Orchestra del Teatro alla Scala di Milano
Tullio Serafin (conductor)

Лог создания рипа

CD1

Exact Audio Copy V1.0 beta 3 from 29. August 2011
EAC extraction logfile from 13. August 2014, 12:59
Bellini / I Puritani, Serafin CD1
Used drive : TS8XDVDSTRANSCEND Adapter: 1 ID: 0
Read mode : Secure
Utilize accurate stream : Yes
Defeat audio cache : Yes
Make use of C2 pointers : No
Read offset correction : 6
Overread into Lead-In and Lead-Out : No
Fill up missing offset samples with silence : Yes
Delete leading and trailing silent blocks : No
Null samples used in CRC calculations : Yes
Used interface : Native Win32 interface for Win NT & 2000
Used output format : Monkey's Audio Lossless Encoder
Selected bitrate : High Lossless Compression
Quality : High
Add ID3 tag : No
Command line compressor : C:\Program Files (x86)\Exact Audio Copy\MAC\MAC.exe
TOC of the extracted CD
Track | Start | Length | Start sector | End sector
---------------------------------------------------------
1 | 0:00.33 | 3:35.02 | 33 | 16159
2 | 3:35.35 | 4:30.05 | 16160 | 36414
3 | 8:05.40 | 3:31.33 | 36415 | 52272
4 | 11:36.73 | 2:26.22 | 52273 | 63244
5 | 14:03.20 | 2:55.05 | 63245 | 76374
6 | 16:58.25 | 3:12.23 | 76375 | 90797
7 | 20:10.48 | 1:54.60 | 90798 | 99407
8 | 22:05.33 | 2:20.35 | 99408 | 109942
9 | 24:25.68 | 6:58.57 | 109943 | 141349
10 | 31:24.50 | 2:45.73 | 141350 | 153797
11 | 34:10.48 | 2:29.52 | 153798 | 165024
12 | 36:40.25 | 6:30.30 | 165025 | 194304
13 | 43:10.55 | 1:57.53 | 194305 | 203132
14 | 45:08.33 | 4:23.10 | 203133 | 222867
15 | 49:31.43 | 3:35.35 | 222868 | 239027
16 | 53:07.03 | 0:42.37 | 239028 | 242214
17 | 53:49.40 | 4:32.55 | 242215 | 262669
18 | 58:22.20 | 3:45.70 | 262670 | 279614
19 | 62:08.15 | 4:59.50 | 279615 | 302089
20 | 67:07.65 | 2:00.13 | 302090 | 311102
Range status and errors
Selected range
Filename D:\EAC\Bellini - I Puritani, Serafin CD1.wav
Peak level 96.3 %
Extraction speed 3.3 X
Range quality 99.9 %
Test CRC 71D0C6E5
Copy CRC 71D0C6E5
Copy OK
No errors occurred
AccurateRip summary
Track 1 accurately ripped (confidence 3) [72813AE1] (AR v2)
Track 2 accurately ripped (confidence 3) [E2B4E9DC] (AR v2)
Track 3 accurately ripped (confidence 3) [91C51781] (AR v2)
Track 4 accurately ripped (confidence 3) [0F5C3769] (AR v2)
Track 5 accurately ripped (confidence 3) [AA78FB68] (AR v2)
Track 6 accurately ripped (confidence 3) [A4DA64C5] (AR v2)
Track 7 accurately ripped (confidence 3) [574E003F] (AR v2)
Track 8 accurately ripped (confidence 3) [6A2E2D67] (AR v2)
Track 9 accurately ripped (confidence 3) [2CA7B0D5] (AR v2)
Track 10 accurately ripped (confidence 3) [2BDADF33] (AR v2)
Track 11 accurately ripped (confidence 3) [90F140F1] (AR v2)
Track 12 accurately ripped (confidence 3) [EEBBAB0E] (AR v2)
Track 13 accurately ripped (confidence 3) [760598A6] (AR v2)
Track 14 accurately ripped (confidence 3) [BCC984EE] (AR v2)
Track 15 accurately ripped (confidence 3) [1490DAD2] (AR v2)
Track 16 accurately ripped (confidence 3) [0C3EF4FE] (AR v2)
Track 17 accurately ripped (confidence 3) [5C2E79F8] (AR v2)
Track 18 accurately ripped (confidence 3) [4E9C975B] (AR v2)
Track 19 accurately ripped (confidence 3) [A0BC3797] (AR v2)
Track 20 accurately ripped (confidence 3) [12FD8C52] (AR v2)
All tracks accurately ripped
End of status report
---- CUETools DB Plugin V2.1.3
[CTDB TOCID: w0fHzqB3xZyl1DrYbPozJwcCMOg-] disk not present in database, Submit result: discs with pregaps not supported in this protocol version
==== Log checksum 394859B502B6803A1A084DA094329EE4ECFDFF7414C731222883FB5499A129F5 ====

CD2

Exact Audio Copy V1.0 beta 3 from 29. August 2011
EAC extraction logfile from 13. August 2014, 12:27
Bellini / I Puritani, Serafin CD2
Used drive : TSSTcorpCDDVDW SE-208AB Adapter: 1 ID: 1
Read mode : Secure
Utilize accurate stream : Yes
Defeat audio cache : Yes
Make use of C2 pointers : No
Read offset correction : 6
Overread into Lead-In and Lead-Out : No
Fill up missing offset samples with silence : Yes
Delete leading and trailing silent blocks : No
Null samples used in CRC calculations : Yes
Used interface : Native Win32 interface for Win NT & 2000
Used output format : Monkey's Audio Lossless Encoder
Selected bitrate : High Lossless Compression
Quality : High
Add ID3 tag : No
Command line compressor : C:\Program Files (x86)\Exact Audio Copy\MAC\MAC.exe
TOC of the extracted CD
Track | Start | Length | Start sector | End sector
---------------------------------------------------------
1 | 0:00.33 | 5:34.05 | 33 | 25087
2 | 5:34.38 | 3:02.07 | 25088 | 38744
3 | 8:36.45 | 4:15.45 | 38745 | 57914
4 | 12:52.15 | 3:03.30 | 57915 | 71669
5 | 15:55.45 | 10:05.63 | 71670 | 117107
6 | 26:01.33 | 2:50.17 | 117108 | 129874
7 | 28:51.50 | 4:46.48 | 129875 | 151372
8 | 33:38.23 | 2:27.12 | 151373 | 162409
9 | 36:05.35 | 2:10.03 | 162410 | 172162
10 | 38:15.38 | 3:17.70 | 172163 | 187007
11 | 41:33.33 | 4:34.57 | 187008 | 207614
12 | 46:08.15 | 2:34.60 | 207615 | 219224
13 | 48:43.00 | 2:06.60 | 219225 | 228734
14 | 50:49.60 | 3:17.60 | 228735 | 243569
15 | 54:07.45 | 3:05.40 | 243570 | 257484
16 | 57:13.10 | 3:09.58 | 257485 | 271717
17 | 60:22.68 | 2:43.47 | 271718 | 283989
18 | 63:06.40 | 1:11.20 | 283990 | 289334
19 | 64:17.60 | 2:09.45 | 289335 | 299054
20 | 66:27.30 | 5:32.00 | 299055 | 323954
21 | 71:59.30 | 1:15.45 | 323955 | 329624
Range status and errors
Selected range
Filename D:\EAC\Bellini - I Puritani, Serafin CD2.wav
Peak level 96.6 %
Extraction speed 5.1 X
Range quality 99.9 %
Test CRC 546C4311
Copy CRC 546C4311
Copy OK
No errors occurred
AccurateRip summary
Track 1 accurately ripped (confidence 3) [367B992B] (AR v2)
Track 2 accurately ripped (confidence 3) [99CA3DFF] (AR v2)
Track 3 accurately ripped (confidence 3) [B347C61D] (AR v2)
Track 4 accurately ripped (confidence 3) [A34AD56C] (AR v2)
Track 5 accurately ripped (confidence 3) [C68CA332] (AR v2)
Track 6 accurately ripped (confidence 3) [AA8D8DD5] (AR v2)
Track 7 accurately ripped (confidence 3) [9D26C242] (AR v2)
Track 8 accurately ripped (confidence 3) [3CEF5DE0] (AR v2)
Track 9 accurately ripped (confidence 3) [E738D82C] (AR v2)
Track 10 accurately ripped (confidence 3) [39CF7DFE] (AR v2)
Track 11 accurately ripped (confidence 3) [6782CA05] (AR v2)
Track 12 accurately ripped (confidence 3) [8E8AA022] (AR v2)
Track 13 accurately ripped (confidence 3) [027C0CB0] (AR v2)
Track 14 accurately ripped (confidence 3) [135F298B] (AR v2)
Track 15 accurately ripped (confidence 3) [5E8C0F64] (AR v2)
Track 16 accurately ripped (confidence 3) [9BEAC942] (AR v2)
Track 17 accurately ripped (confidence 3) [F93AA454] (AR v2)
Track 18 accurately ripped (confidence 3) [06B0A3F1] (AR v2)
Track 19 accurately ripped (confidence 3) [B25D4767] (AR v2)
Track 20 accurately ripped (confidence 3) [60C7C4B2] (AR v2)
Track 21 accurately ripped (confidence 2) [740EB1C5] (AR v2)
All tracks accurately ripped
End of status report
---- CUETools DB Plugin V2.1.3
[CTDB TOCID: WY3JiSvzjs7p1ufalxAb5kVGMe8-] database access error: De externe naam kan niet worden opgehaald: 'db.cuetools.net'
==== Log checksum 31F6D4385A1294E58763041E31DA32AD2D60600D631453B1A528597B32C4E974 ====

Содержание индексной карты (.CUE)

CD1

REM GENRE Opera
REM DATE 1953
REM DISCID 0D103414
REM COMMENT "ExactAudioCopy v1.0b3"
CATALOG 0000000000000
PERFORMER "Bellini"
TITLE "I Puritani, Serafin CD1"
FILE "Bellini - I Puritani, Serafin CD1.ape" WAVE
TRACK 01 AUDIO
TITLE "Introduzione"
PERFORMER "Bellini"
INDEX 00 00:00:00
INDEX 01 00:00:33
TRACK 02 AUDIO
TITLE "Atto I, Scena I: All'Erta! All'erta! (Bruno, Coro)"
PERFORMER "Bellini"
INDEX 00 03:35:33
INDEX 01 03:35:35
TRACK 03 AUDIO
TITLE "Atto I, Scena I: O di Cromvel guerrieri (Bruno, Elvira, Arturo, Riccardo, Gio..."
PERFORMER "Bellini"
INDEX 00 08:05:38
INDEX 01 08:05:40
TRACK 04 AUDIO
TITLE "Atto I, Scena I: A festa! (Coro)"
PERFORMER "Bellini"
INDEX 00 11:36:69
INDEX 01 11:36:73
TRACK 05 AUDIO
TITLE "Atto I, Scena I: Or dove fuggo io mai? (Riccardo, Bruno)"
PERFORMER "Bellini"
INDEX 00 14:03:18
INDEX 01 14:03:20
TRACK 06 AUDIO
TITLE "Atto I, Scena I: Ah! per sempre io ti perdei (Riccardo)"
PERFORMER "Bellini"
INDEX 00 16:58:23
INDEX 01 16:58:25
TRACK 07 AUDIO
TITLE "Atto I, Scena I: T'appellan le schiere... Bel sogno beato, di pace e contento..."
PERFORMER "Bellini"
INDEX 00 20:10:45
INDEX 01 20:10:48
TRACK 08 AUDIO
TITLE "Atto I, Scena II: O amato zio, o mio secondo padre! (Elvira, Giorgio)"
PERFORMER "Bellini"
INDEX 00 22:05:30
INDEX 01 22:05:33
TRACK 09 AUDIO
TITLE "Atto I, Scena II: Sai com'arde in petto mio... (Elvira, Giorgio)"
PERFORMER "Bellini"
INDEX 00 24:25:65
INDEX 01 24:25:68
TRACK 10 AUDIO
TITLE "Atto I, Scena II: Odi... Qual suon si desta? (Elvira, Giorgio, Coro)"
PERFORMER "Bellini"
INDEX 00 31:24:48
INDEX 01 31:24:50
TRACK 11 AUDIO
TITLE "Atto I, Scena III: Ad Arturo onore (Coro)"
PERFORMER "Bellini"
INDEX 00 34:10:45
INDEX 01 34:10:48
TRACK 12 AUDIO
TITLE "Atto I, Scena III: A te, o cara, amor talora (Arturo, Elvira, Giorgio, Valton..."
PERFORMER "Bellini"
INDEX 00 36:40:23
INDEX 01 36:40:25
TRACK 13 AUDIO
TITLE "Atto I, Scena III: Il rito augusto si compia senza me (Valton, Enrichetta, Ar..."
PERFORMER "Bellini"
INDEX 00 43:10:53
INDEX 01 43:10:55
TRACK 14 AUDIO
TITLE "Atto I, Scena III: Com'io, vi unisca (Valton, Enrichetta, Arturo)"
PERFORMER "Bellini"
INDEX 00 45:08:30
INDEX 01 45:08:33
TRACK 15 AUDIO
TITLE "Atto I, Scena III: Son vergin vezzosa (Elvira, Enrichetta, Arturo, Giorgio, V..."
PERFORMER "Bellini"
INDEX 00 49:31:40
INDEX 01 49:31:43
TRACK 16 AUDIO
TITLE "Atto I, Scena III: Sulla virginea testa (Enrichetta, Arturo)"
PERFORMER "Bellini"
INDEX 00 53:07:00
INDEX 01 53:07:03
TRACK 17 AUDIO
TITLE "Atto I, Scena III: Ferma. Invan rapir pretendi... (Riccardo, Arturo, Enrichet..."
PERFORMER "Bellini"
INDEX 00 53:49:38
INDEX 01 53:49:40
TRACK 18 AUDIO
TITLE "Atto I, Scena III: E' già al ponte - passa il forte (Riccardo, Elvira, Giorgi..."
PERFORMER "Bellini"
INDEX 00 58:22:18
INDEX 01 58:22:20
TRACK 19 AUDIO
TITLE "Atto I, Scena III: Oh vieni al tempio - fedele Arturo (Elvira, Bruno, Coro, R..."
PERFORMER "Bellini"
INDEX 00 62:08:13
INDEX 01 62:08:15
TRACK 20 AUDIO
TITLE "Atto I, Scena III: Ma tu già mi fuggi? (Elvira, Bruno, Riccardo, Giorgio, Coro)"
PERFORMER "Bellini"
INDEX 00 67:07:63
INDEX 01 67:07:65

CD2

REM GENRE Opera
REM DATE 1953
REM DISCID 52112B15
REM COMMENT "ExactAudioCopy v1.0b3"
PERFORMER "Bellini"
TITLE "I Puritani, Serafin CD2"
FILE "Bellini - I Puritani, Serafin CD2.ape" WAVE
TRACK 01 AUDIO
TITLE "Atto II: Ah... dolor! Ah, terror! (Coro)"
PERFORMER "Bellini"
INDEX 00 00:00:00
INDEX 01 00:00:33
TRACK 02 AUDIO
TITLE "Atto II: Qual novella? (Coro, Giorgio)"
PERFORMER "Bellini"
INDEX 00 05:34:35
INDEX 01 05:34:38
TRACK 03 AUDIO
TITLE "Atto II: Cinta di fiori e col ben crin disciolto (Giorgio, Coro)"
PERFORMER "Bellini"
INDEX 00 08:36:43
INDEX 01 08:36:45
TRACK 04 AUDIO
TITLE "Atto II: E di morte lo stral non sarà lento (Riccardo, Giorgio, Coro)"
PERFORMER "Bellini"
INDEX 00 12:52:13
INDEX 01 12:52:15
TRACK 05 AUDIO
TITLE "Atto II: O rendetemi la speme... Qui la voce sua soave mi chiamava... (Elvira..."
PERFORMER "Bellini"
INDEX 00 15:55:43
INDEX 01 15:55:45
TRACK 06 AUDIO
TITLE "Atto II: Vien, diletto, è in ciel la luna! (Elvira)"
PERFORMER "Bellini"
INDEX 00 26:01:30
INDEX 01 26:01:33
TRACK 07 AUDIO
TITLE "Atto II: Il rival salvar tu dêi (Giorgio, Riccardo)"
PERFORMER "Bellini"
INDEX 00 28:51:48
INDEX 01 28:51:50
TRACK 08 AUDIO
TITLE "Atto II: Se tra il buio un fantasma vedrai (Giorgio, Riccardo)"
PERFORMER "Bellini"
INDEX 00 33:38:20
INDEX 01 33:38:23
TRACK 09 AUDIO
TITLE "Atto II: Riccardo! Riccardo! (Giorgio, Riccardo)"
PERFORMER "Bellini"
INDEX 00 36:05:33
INDEX 01 36:05:35
TRACK 10 AUDIO
TITLE "Atto II: Suoni la tromba ((Riccardo, Giorgio)"
PERFORMER "Bellini"
INDEX 00 38:15:35
INDEX 01 38:15:38
TRACK 11 AUDIO
TITLE "Atto III: Son salvo, alfin son salvo (Arturo)"
PERFORMER "Bellini"
INDEX 00 41:29:23
INDEX 01 41:33:33
TRACK 12 AUDIO
TITLE "Atto III: A una fonte afflitto e solo (Elvira, Arturo)"
PERFORMER "Bellini"
INDEX 00 46:08:13
INDEX 01 46:08:15
TRACK 13 AUDIO
TITLE "Atto III: Qual suon! Alcun s'appressa (Arturo, Coro)"
PERFORMER "Bellini"
INDEX 00 48:42:73
INDEX 01 48:43:00
TRACK 14 AUDIO
TITLE "Atto III: Son già lontani! (Arturo)"
PERFORMER "Bellini"
INDEX 00 50:49:58
INDEX 01 50:49:60
TRACK 15 AUDIO
TITLE "Atto III: Finì... me lassa! (Elvira, Arturo)"
PERFORMER "Bellini"
INDEX 00 54:07:43
INDEX 01 54:07:45
TRACK 16 AUDIO
TITLE "Atto III: Ch'ei provò lontan da me? (Elvira, Arturo)"
PERFORMER "Bellini"
INDEX 00 57:13:08
INDEX 01 57:13:10
TRACK 17 AUDIO
TITLE "Atto III: Vieni fra queste braccia (Arturo, Elvira)"
PERFORMER "Bellini"
INDEX 00 60:22:65
INDEX 01 60:22:68
TRACK 18 AUDIO
TITLE "Atto III: Alto là! Fedel drappello (Coro, Arturo, Elvira, Riccardo, Giorgio)"
PERFORMER "Bellini"
INDEX 00 63:06:38
INDEX 01 63:06:40
TRACK 19 AUDIO
TITLE "Atto III: Cavalier, ti Colse il Dio (Riccardo, Giorgio, Coro, Elvira)"
PERFORMER "Bellini"
INDEX 00 64:17:58
INDEX 01 64:17:60
TRACK 20 AUDIO
TITLE "Atto III: Credeasi, misera!... (Arturo, Elvira, Riccardo, Giorgio, Coro)"
PERFORMER "Bellini"
INDEX 00 66:27:28
INDEX 01 66:27:30
TRACK 21 AUDIO
TITLE "Atto III: Suon d'araldi? (Riccardo, Giorgio, Coro, Elvira, Arturo)"
PERFORMER "Bellini"
INDEX 00 71:59:28
INDEX 01 71:59:30



Показать сообщения:    

Текущее время: 03-Дек 01:16

Часовой пояс: UTC + 3


Вы не можете начинать темы
Вы не можете отвечать на сообщения
Вы не можете редактировать свои сообщения
Вы не можете удалять свои сообщения
Вы не можете голосовать в опросах
Вы не можете прикреплять файлы к сообщениям
Вы не можете скачивать файлы