(Classical) Ravel, Respighi, Granados - Violin Sonatas - Frederieke Saeijs, Maurice Lammerts van Bueren - 2009, FLAC (image+.cue) lossless


 

[Цитировать]

Ravel, Respighi, Granados - Violin Sonatas - Frederieke Saeijs, Maurice Lammerts van Bueren
Жанр: Classical
Год издания диска: 2009
Издатель (лейбл): Naxos
Номер по каталогу: 8.572093
Дата записи: 2006
Аудиокодек: FLAC
Тип рипа: image+.cue
Битрейт аудио: lossless
Продолжительность: 57:25
Источник: собственный рип
Наличие сканов в содержимом раздачи: да
Треклист:
Maurice Ravel (1875-1937)
[1]-[3] Violin Sonata in G major
Ottorino Respighi (1879-1936)
[4]-[6] Violin Sonata in B minor, P. 110
Enrique Granados (1867-1916)
[7] Violin Sonata
Исполнители:
Frederieke Saeijs violin
Maurice Lammerts van Bueren piano

Лог создания рипа

Exact Audio Copy V1.0 beta 3 from 29. August 2011
EAC extraction logfile from 11. February 2015, 20:54
Frederieke Saeijs, Maurice Lammerts van Bueren / Ravel, Respighi, Granados - Violin Sonatas
Used drive : HL-DT-STDVDRAM GU70N Adapter: 0 ID: 0
Read mode : Secure
Utilize accurate stream : Yes
Defeat audio cache : Yes
Make use of C2 pointers : No
Read offset correction : 48
Overread into Lead-In and Lead-Out : No
Fill up missing offset samples with silence : Yes
Delete leading and trailing silent blocks : No
Null samples used in CRC calculations : Yes
Used interface : Native Win32 interface for Win NT & 2000
Used output format : User Defined Encoder
Selected bitrate : 128 kBit/s
Quality : High
Add ID3 tag : No
Command line compressor : C:\Program Files (x86)\Exact Audio Copy\Flac\flac.exe
Additional command line options : -V -8 -T "Date=%year%" -T "Genre=%genre%" %source%
TOC of the extracted CD
Track | Start | Length | Start sector | End sector
---------------------------------------------------------
1 | 0:00.00 | 8:31.66 | 0 | 38390
2 | 8:31.66 | 5:42.11 | 38391 | 64051
3 | 14:14.02 | 3:51.64 | 64052 | 81440
4 | 18:05.66 | 10:01.11 | 81441 | 126526
5 | 28:07.02 | 8:54.46 | 126527 | 166622
6 | 37:01.48 | 8:24.72 | 166623 | 204494
7 | 45:26.45 | 11:56.30 | 204495 | 258224
Range status and errors
Selected range
Filename C:\temp\Naxos_8.572093 - Ravel, Respighi, Granados - Violin Sonatas\Ravel, Respighi, Granados - Violin Sonatas.wav
Peak level 98.8 %
Extraction speed 5.1 X
Range quality 100.0 %
Test CRC BABD59C6
Copy CRC BABD59C6
Copy OK
No errors occurred
AccurateRip summary
Track 1 accurately ripped (confidence 1) [02BAC1CE] (AR v2)
Track 2 accurately ripped (confidence 1) [976F4A68] (AR v2)
Track 3 accurately ripped (confidence 1) [46580007] (AR v2)
Track 4 accurately ripped (confidence 1) [BC416632] (AR v2)
Track 5 accurately ripped (confidence 1) [C45A854D] (AR v2)
Track 6 accurately ripped (confidence 1) [5732C98B] (AR v2)
Track 7 accurately ripped (confidence 1) [D046D042] (AR v2)
All tracks accurately ripped
End of status report
==== Log checksum CCFB95E4DA4CFEB74D0539B210306EF0DD98387F3004302A041294077F5BFF2C ====



Показать сообщения:    

Текущее время: 05-Дек 15:34

Часовой пояс: UTC + 3


Вы не можете начинать темы
Вы не можете отвечать на сообщения
Вы не можете редактировать свои сообщения
Вы не можете удалять свои сообщения
Вы не можете голосовать в опросах
Вы не можете прикреплять файлы к сообщениям
Вы не можете скачивать файлы