Верди - Дон Карлос (Кауфманн, Хартерос, Хэмпсон, Семенчук) / Verdi - Don Carlo (Kaufmann, Harteros, Hampson, Semenchuk) Антонио Паппано / Antonio Pappano (Peter Stein) [2013, Opera, BDRip-AVC 720p] Sub [Русские][Eng, Ger, Fre, Ita, Esp.]


 

[Цитировать]

-Оперный фестиваль в Зальцбурге представляет
ДЖУЗЕППЕ Фортунино Франческо ВЕРДИ
10 октября (October 10,) 1813 — 13 января (January 27,) 1901
»«Дон К А Р Л О С»«
Либретто М. Мери и К. дю Локля по мотивам драмы Ф. Шиллера "Дон Карлос, инфант испанский"
-- ГОД ЗАПИСИ 2013
РЕЖИССЁР Питер ШТАЙН Peter Stein
Язык: Итальянский
Субтитры/Subtitles: РУССКИЕ,
English, French, German, Italiano, Espanol, Korean, Japanese
Продолжительность: 163 min.
ФИЛИПП II Матти САЛМИНЕН Matti Salminen
ДОН КАРЛОС Йонас КАУФМАНН Jonas Kaufmann
РОДРИГО, маркиз ди Поза Томас ХЭМПСОН Thomas Hampson
ВЕЛИКИЙ ИНКВИЗИТОР Эрик ХАЛФВАРСОН Eric Halfvarson
ЕЛИЗАВЕТА ВАЛУА Аня ХАРТЕРОС Anja Harteros
ПРИНЦЕССА ЭБОЛИ Екатерина СЕМЕНЧУК Ekaterina Semenchuk
ТИБО Мария ЦЕЛЕНГ Mária Celeng
ГРАФ ди ЛЕРМА Бенжамин БЕРНХАЙМ Benjamin Bernheim
КОРОЛЕВСКИЙ ГЕРОЛЬД Бенжамин БЕРНХАЙМ Benjamin Bernheim
МОНАХ Роберт ЛЛОЙД Robert Lloyd
ГОЛОС с НЕБА Сэн ГУО Sen Guo
ХОР и ОРКЕСТР Венской государственной Оперы
ДИРИЖЁР Антонио ПАППАНО Antonio Pappano

Качество видео: BDRip-AVC Исходник
♫ Sample ♫
Формат/Контейнер: MKV
Видео поток: 1280x720, 4000 kbps, 29,970 fps.
Аудио поток: Italian
#1 FLAC 648@1536 kbps, 48,0 KHz, 16 bit, 2 ch
#2 AC3 640 kbps, 48,0 KHz, 16 bit, 6 ch
Aудио DTS 1509 kbps, 24/48 (original) отдельным файлом на Яндексе
Навигация по главам: Есть

Скриншоты

MediaInfoPart1

-

x264.log


avs [info]: 1280x720p 1:1 @ 1497/50 fps (cfr)
x264 [info]: using SAR=1/1
x264 [info]: using cpu capabilities: MMX2 SSE2Fast LZCNT
x264 [info]: profile High, level 4.1
x264 [info]: frame I:1062 Avg QP:14.11 size: 77077
x264 [info]: frame P:101306 Avg QP:16.22 size: 22818
x264 [info]: frame B:77059 Avg QP:18.14 size: 7826
x264 [info]: consecutive B-frames: 28.5% 38.9% 10.9% 21.6%
x264 [info]: mb I I16..4: 9.5% 71.2% 19.3%
x264 [info]: mb P I16..4: 2.4% 5.6% 0.7% P16..4: 45.9% 21.8% 11.9% 0.0% 0.0% skip:11.6%
x264 [info]: mb B I16..4: 0.3% 0.4% 0.0% B16..8: 44.8% 8.7% 1.5% direct: 4.3% skip:40.0% L0:43.7% L1:47.7% BI: 8.6%
x264 [info]: 8x8 transform intra:64.6% inter:75.7%
x264 [info]: direct mvs spatial:85.1% temporal:14.9%
x264 [info]: coded y,uvDC,uvAC intra: 42.2% 56.1% 26.8% inter: 24.4% 30.8% 1.7%
x264 [info]: i16 v,h,dc,p: 58% 16% 15% 11%
x264 [info]: i8 v,h,dc,ddl,ddr,vr,hd,vl,hu: 10% 5% 30% 9% 10% 10% 8% 9% 8%
x264 [info]: i4 v,h,dc,ddl,ddr,vr,hd,vl,hu: 15% 8% 18% 9% 12% 11% 9% 9% 10%
x264 [info]: i8c dc,h,v,p: 54% 20% 19% 7%
x264 [info]: Weighted P-Frames: Y:0.8% UV:0.1%
x264 [info]: ref P L0: 56.7% 5.8% 24.1% 13.4% 0.1%
x264 [info]: ref B L0: 77.4% 20.0% 2.5%
x264 [info]: ref B L1: 95.3% 4.7%
x264 [info]: kb/s:4000.12
-
General
Unique ID : 193222158839070699654896109938908943882 (0x915D3BF216B8E97E9CEADE603AB5560A)
Complete name : Don Carlo (Kaufmann, Harteros) Salzburg 2013\Don Carlo (Kaufmann, Harteros) Part1.mkv
Format : Matroska
Format version : Version 4 / Version 2
File size : 3.68 GiB
Duration : 1h 39mn
Overall bit rate mode : Variable
Overall bit rate : 5 270 Kbps
Encoded date : UTC 2015-08-12 16:43:42
Writing application : mkvmerge v8.1.0 ('Psychedelic Postcard') 32bit
Writing library : libebml v1.3.1 + libmatroska v1.4.2
Video
ID : 1
Format : AVC
Format/Info : Advanced Video Codec
Format profile : High@L4.1
Format settings, CABAC : Yes
Format settings, ReFrames : 4 frames
Codec ID : V_MPEG4/ISO/AVC
Duration : 1h 39mn
Nominal bit rate : 4 000 Kbps
Width : 1 280 pixels
Height : 720 pixels
Display aspect ratio : 16:9
Frame rate mode : Constant
Frame rate : 29.940 fps
Color space : YUV
Chroma subsampling : 4:2:0
Bit depth : 8 bits
Scan type : Progressive
Bits/(Pixel*Frame) : 0.145
Writing library : x264 core 146 r2538 121396c
Encoding settings : cabac=1 / ref=3 / deblock=1:0:0 / analyse=0x3:0x113 / me=umh / subme=9 / psy=1 / psy_rd=1.00:0.00 / mixed_ref=1 / me_range=32 / chroma_me=1 / trellis=1 / 8x8dct=1 / cqm=0 / deadzone=21,11 / fast_pskip=1 / chroma_qp_offset=-2 / threads=4 / lookahead_threads=1 / sliced_threads=0 / nr=0 / decimate=1 / interlaced=0 / bluray_compat=0 / constrained_intra=0 / bframes=3 / b_pyramid=2 / b_adapt=1 / b_bias=0 / direct=3 / weightb=1 / open_gop=0 / weightp=2 / keyint=299 / keyint_min=29 / scenecut=40 / intra_refresh=0 / rc_lookahead=60 / rc=2pass / mbtree=1 / bitrate=4000 / ratetol=1.0 / qcomp=0.60 / qpmin=10 / qpmax=51 / qpstep=4 / cplxblur=20.0 / qblur=0.5 / vbv_maxrate=50000 / vbv_bufsize=62500 / nal_hrd=none / filler=0 / ip_ratio=1.40 / aq=1:1.00
Language : English
Default : Yes
Forced : No
Audio #1
ID : 2
Format : AC-3
Format/Info : Audio Coding 3
Mode extension : CM (complete main)
Format settings, Endianness : Big
Codec ID : A_AC3
Duration : 1h 39mn
Bit rate mode : Constant
Bit rate : 640 Kbps
Channel(s) : 5 channels
Channel positions : Front: L C R, Side: L R
Sampling rate : 48.0 KHz
Compression mode : Lossy
Stream size : 457 MiB (12%)
Language : Italian
Default : No
Forced : No
Audio #2
ID : 3
Format : FLAC
Format/Info : Free Lossless Audio Codec
Codec ID : A_FLAC
Duration : 1h 39mn
Bit rate mode : Variable
Channel(s) : 2 channels
Sampling rate : 48.0 KHz
Bit depth : 16 bits
Writing library : libFLAC 1.2.1 (UTC 2007-09-17)
Language : Italian
Default : Yes
Forced : Yes
Text #1
ID : 4
Format : UTF-8
Codec ID : S_TEXT/UTF8
Codec ID/Info : UTF-8 Plain Text
Language : Russian
Default : Yes
Forced : Yes
Text #2
ID : 5
Format : UTF-8
Codec ID : S_TEXT/UTF8
Codec ID/Info : UTF-8 Plain Text
Language : English
Default : No
Forced : No
Text #3
ID : 6
Format : UTF-8
Codec ID : S_TEXT/UTF8
Codec ID/Info : UTF-8 Plain Text
Language : French
Default : No
Forced : No
Text #4
ID : 7
Format : UTF-8
Codec ID : S_TEXT/UTF8
Codec ID/Info : UTF-8 Plain Text
Language : German
Default : No
Forced : No
Text #5
ID : 8
Format : UTF-8
Codec ID : S_TEXT/UTF8
Codec ID/Info : UTF-8 Plain Text
Language : Spanish
Default : No
Forced : No
Text #6
ID : 9
Format : UTF-8
Codec ID : S_TEXT/UTF8
Codec ID/Info : UTF-8 Plain Text
Language : Italian
Default : No
Forced : No
Text #7
ID : 10
Format : VobSub
Muxing mode : zlib
Codec ID : S_VOBSUB
Codec ID/Info : Picture based subtitle format used on DVDs
Language : Korean
Default : No
Forced : No
Text #8
ID : 11
Format : VobSub
Muxing mode : zlib
Codec ID : S_VOBSUB
Codec ID/Info : Picture based subtitle format used on DVDs
Language : Japanese
Default : No
Forced : No
Menu
00:01:01.116 : it:Preludio
00:03:02.482 : it:Atto prima
00:35:41.793 : it:Atto secondo

Part2

-

x264.log


avs [info]: 1280x720p 1:1 @ 1497/50 fps (cfr)
x264 [info]: using SAR=1/1
x264 [info]: using cpu capabilities: MMX2 SSE2Fast LZCNT
x264 [info]: profile High, level 4.1
x264 [info]: frame I:1342 Avg QP:14.79 size: 87877
x264 [info]: frame P:122804 Avg QP:16.98 size: 24808
x264 [info]: frame B:118890 Avg QP:19.25 size: 7522
x264 [info]: consecutive B-frames: 23.3% 29.6% 14.1% 32.9%
x264 [info]: mb I I16..4: 11.2% 65.4% 23.3%
x264 [info]: mb P I16..4: 2.5% 5.2% 0.7% P16..4: 45.9% 19.8% 12.3% 0.0% 0.0% skip:13.7%
x264 [info]: mb B I16..4: 0.3% 0.4% 0.0% B16..8: 43.5% 7.2% 1.3% direct: 3.6% skip:43.7% L0:42.8% L1:47.9% BI: 9.3%
x264 [info]: 8x8 transform intra:62.2% inter:74.6%
x264 [info]: direct mvs spatial:90.0% temporal:10.0%
x264 [info]: coded y,uvDC,uvAC intra: 42.4% 56.1% 26.9% inter: 22.8% 27.9% 2.0%
x264 [info]: i16 v,h,dc,p: 59% 17% 13% 11%
x264 [info]: i8 v,h,dc,ddl,ddr,vr,hd,vl,hu: 11% 5% 29% 8% 10% 10% 8% 9% 8%
x264 [info]: i4 v,h,dc,ddl,ddr,vr,hd,vl,hu: 16% 9% 13% 8% 12% 12% 10% 10% 10%
x264 [info]: i8c dc,h,v,p: 51% 21% 20% 9%
x264 [info]: Weighted P-Frames: Y:1.3% UV:0.1%
x264 [info]: ref P L0: 55.9% 6.7% 24.1% 13.1% 0.1%
x264 [info]: ref B L0: 78.2% 18.5% 3.3%
x264 [info]: ref B L1: 93.8% 6.2%
x264 [info]: kb/s:4000.00
-
General
Unique ID : 209776927879907177987062824093419669886 (0x9DD191138C99EDBC818B734B29C9897E)
Complete name : Don Carlo (Kaufmann, Harteros) Salzburg 2013\Don Carlo (Kaufmann, Harteros) Part2.mkv
Format : Matroska
Format version : Version 4 / Version 2
File size : 5.00 GiB
Duration : 2h 15mn
Overall bit rate mode : Variable
Overall bit rate : 5 291 Kbps
Encoded date : UTC 2015-08-15 17:08:57
Writing application : mkvmerge v8.1.0 ('Psychedelic Postcard') 32bit
Writing library : libebml v1.3.1 + libmatroska v1.4.2
Video
ID : 1
Format : AVC
Format/Info : Advanced Video Codec
Format profile : High@L4.1
Format settings, CABAC : Yes
Format settings, ReFrames : 4 frames
Codec ID : V_MPEG4/ISO/AVC
Duration : 2h 15mn
Nominal bit rate : 4 000 Kbps
Width : 1 280 pixels
Height : 720 pixels
Display aspect ratio : 16:9
Frame rate mode : Constant
Frame rate : 29.940 fps
Color space : YUV
Chroma subsampling : 4:2:0
Bit depth : 8 bits
Scan type : Progressive
Bits/(Pixel*Frame) : 0.145
Writing library : x264 core 146 r2538 121396c
Encoding settings : cabac=1 / ref=3 / deblock=1:0:0 / analyse=0x3:0x113 / me=umh / subme=9 / psy=1 / psy_rd=1.00:0.00 / mixed_ref=1 / me_range=32 / chroma_me=1 / trellis=1 / 8x8dct=1 / cqm=0 / deadzone=21,11 / fast_pskip=1 / chroma_qp_offset=-2 / threads=4 / lookahead_threads=1 / sliced_threads=0 / nr=0 / decimate=1 / interlaced=0 / bluray_compat=0 / constrained_intra=0 / bframes=3 / b_pyramid=2 / b_adapt=1 / b_bias=0 / direct=3 / weightb=1 / open_gop=0 / weightp=2 / keyint=299 / keyint_min=29 / scenecut=40 / intra_refresh=0 / rc_lookahead=60 / rc=2pass / mbtree=1 / bitrate=4000 / ratetol=1.0 / qcomp=0.60 / qpmin=10 / qpmax=51 / qpstep=4 / cplxblur=20.0 / qblur=0.5 / vbv_maxrate=50000 / vbv_bufsize=62500 / nal_hrd=none / filler=0 / ip_ratio=1.40 / aq=1:1.00
Language : English
Default : Yes
Forced : No
Audio #1
ID : 2
Format : AC-3
Format/Info : Audio Coding 3
Mode extension : CM (complete main)
Format settings, Endianness : Big
Codec ID : A_AC3
Duration : 2h 15mn
Bit rate mode : Constant
Bit rate : 640 Kbps
Channel(s) : 5 channels
Channel positions : Front: L C R, Side: L R
Sampling rate : 48.0 KHz
Compression mode : Lossy
Stream size : 619 MiB (12%)
Language : Italian
Default : No
Forced : No
Audio #2
ID : 3
Format : FLAC
Format/Info : Free Lossless Audio Codec
Codec ID : A_FLAC
Duration : 2h 15mn
Bit rate mode : Variable
Channel(s) : 2 channels
Sampling rate : 48.0 KHz
Bit depth : 16 bits
Writing library : libFLAC 1.2.1 (UTC 2007-09-17)
Language : Italian
Default : Yes
Forced : No
Text #1
ID : 4
Format : UTF-8
Codec ID : S_TEXT/UTF8
Codec ID/Info : UTF-8 Plain Text
Language : Russian
Default : Yes
Forced : Yes
Text #2
ID : 5
Format : UTF-8
Codec ID : S_TEXT/UTF8
Codec ID/Info : UTF-8 Plain Text
Language : English
Default : No
Forced : No
Text #3
ID : 6
Format : UTF-8
Codec ID : S_TEXT/UTF8
Codec ID/Info : UTF-8 Plain Text
Language : French
Default : No
Forced : No
Text #4
ID : 7
Format : UTF-8
Codec ID : S_TEXT/UTF8
Codec ID/Info : UTF-8 Plain Text
Language : German
Default : No
Forced : No
Text #5
ID : 8
Format : UTF-8
Codec ID : S_TEXT/UTF8
Codec ID/Info : UTF-8 Plain Text
Language : Spanish
Default : No
Forced : No
Text #6
ID : 9
Format : UTF-8
Codec ID : S_TEXT/UTF8
Codec ID/Info : UTF-8 Plain Text
Language : Italian
Default : No
Forced : No
Text #7
ID : 10
Format : VobSub
Muxing mode : zlib
Codec ID : S_VOBSUB
Codec ID/Info : Picture based subtitle format used on DVDs
Language : Korean
Default : No
Forced : No
Text #8
ID : 11
Format : VobSub
Muxing mode : zlib
Codec ID : S_VOBSUB
Codec ID/Info : Picture based subtitle format used on DVDs
Language : Japanese
Default : No
Forced : No
Menu
00:00:01.016 : it:Atto terzo
00:40:16.743 : it:Atto quarto
01:42:05.090 : it:Atto quinto



Показать сообщения:    

Текущее время: 05-Дек 15:33

Часовой пояс: UTC + 3


Вы не можете начинать темы
Вы не можете отвечать на сообщения
Вы не можете редактировать свои сообщения
Вы не можете удалять свои сообщения
Вы не можете голосовать в опросах
Вы не можете прикреплять файлы к сообщениям
Вы не можете скачивать файлы