(Opera) Mascagni - Cavalleria rusticana - Souliotis, Del Monaco, Gobbi - Varviso - 2005, APE (image+.cue) lossless


 

[Цитировать]

(Opera) Mascagni - Cavalleria rusticana - Souliotis, Del Monaco, Gobbi - Varviso - 2005, APE (image+.cue) lossless
Жанр: Opera
Страна-производитель диска: UK
Год издания диска: 2005
Издатель (лейбл): Decca
Номер по каталогу: 476 7216
Дата записи: 1966
Аудиокодек: APE
Тип рипа: image+.cue
Битрейт аудио: lossless
Продолжительность: 71:19
Источник: собственный рип
Наличие сканов в содержимом раздачи: нет

Исполнители

Conductor - Silvio Varviso
Orchestra - Teatro dell'Opera di Roma
Chorus - Teatro dell'Opera di Roma
Santuzza - Elena Souliotis
Turiddu - Mario Del Monaco
Alfio - Tito Gobbi
Lola - Stefania Malagù
Lucia - Anna Di Stasio

Треклист

01 Preludio
02 O Lola ch'hai di latti la cammisa
03 Ah! - Gli aranci olezzano
04 Dite, Mamma Lucia
05 Il cavallo scalpita
06 Beato voi, compar Alfio
07 Voi lo sapeta, o mamma
08 Tu qui, Santuzza?
09 Fior di giaggiolo
10 Ah! Io vedi, che hai ru detto?
11 Oh! Il Signore mi manda, compar Alfio!
12 Intermezzo
13 A casa, a casa, amici
14 Viva il vino spumeggiante
15 A voi tutti, salute!
16 Mamma, quel vino e generoso

Лог создания рипа

Exact Audio Copy V1.0 beta 3 from 29. August 2011
EAC extraction logfile from 1. April 2015, 15:29
Souliotis, Del Monaco, Gobbi - Silvio Varviso - Orchestra e coro dell'Accademia di Santa Cecilia di Roma / Mascagni: Cavalleria Rusticana
Used drive : TS8XDVDRTranscend Adapter: 2 ID: 1
Read mode : Secure
Utilize accurate stream : Yes
Defeat audio cache : Yes
Make use of C2 pointers : No
Read offset correction : 6
Overread into Lead-In and Lead-Out : No
Fill up missing offset samples with silence : Yes
Delete leading and trailing silent blocks : No
Null samples used in CRC calculations : Yes
Used interface : Native Win32 interface for Win NT & 2000
Used output format : Monkey's Audio Lossless Encoder
Selected bitrate : Normal Lossless Compression
Quality : High
Add ID3 tag : Yes
Command line compressor : C:\Program Files (x86)\Monkey's Audio\MAC.exe
Additional command line options : %source% %dest% -c3000
TOC of the extracted CD
Track | Start | Length | Start sector | End sector
---------------------------------------------------------
1 | 0:00.33 | 2:35.65 | 33 | 11722
2 | 2:36.23 | 5:05.27 | 11723 | 34624
3 | 7:41.50 | 7:46.65 | 34625 | 69639
4 | 15:28.40 | 3:46.30 | 69640 | 86619
5 | 19:14.70 | 2:39.63 | 86620 | 98607
6 | 21:54.58 | 7:34.52 | 98608 | 132709
7 | 29:29.35 | 5:36.20 | 132710 | 157929
8 | 35:05.55 | 3:19.28 | 157930 | 172882
9 | 38:25.08 | 2:55.17 | 172883 | 186024
10 | 41:20.25 | 5:17.15 | 186025 | 209814
11 | 46:37.40 | 5:12.60 | 209815 | 233274
12 | 51:50.25 | 3:41.63 | 233275 | 249912
13 | 55:32.13 | 2:41.12 | 249913 | 261999
14 | 58:13.25 | 2:39.40 | 262000 | 273964
15 | 60:52.65 | 4:56.38 | 273965 | 296202
16 | 65:49.28 | 5:30.60 | 296203 | 321012
Range status and errors
Selected range
Filename F:\Opera\Mascagni\Mascagni - CAVALLERIA RUSTICANA - Del Monaco, Souliotis, Gobbi - Varviso (1966)\CDImage.wav
Peak level 100.0 %
Extraction speed 5.1 X
Range quality 99.9 %
Test CRC 5C076E1D
Copy CRC 5C076E1D
Copy OK
No errors occurred
AccurateRip summary
Track 1 cannot be verified as accurate (confidence 1) [91AC6F05], AccurateRip returned [5909AC6D] (AR v2)
Track 2 cannot be verified as accurate (confidence 1) [BF12A704], AccurateRip returned [0A95B5BD] (AR v2)
Track 3 cannot be verified as accurate (confidence 1) [A6E70C35], AccurateRip returned [12909E30] (AR v2)
Track 4 cannot be verified as accurate (confidence 1) [AA0536D5], AccurateRip returned [5C39C86D] (AR v2)
Track 5 cannot be verified as accurate (confidence 1) [26F4FEE6], AccurateRip returned [7FCDEC8A] (AR v2)
Track 6 cannot be verified as accurate (confidence 1) [A305D1B4], AccurateRip returned [AB5B9DAA] (AR v2)
Track 7 cannot be verified as accurate (confidence 1) [0E2669DE], AccurateRip returned [F21D13E2] (AR v2)
Track 8 cannot be verified as accurate (confidence 1) [58FE9081], AccurateRip returned [16652389] (AR v2)
Track 9 cannot be verified as accurate (confidence 1) [2A44EC53], AccurateRip returned [ACA5AB94] (AR v2)
Track 10 cannot be verified as accurate (confidence 1) [CD95837E], AccurateRip returned [AFAFD9F9] (AR v2)
Track 11 cannot be verified as accurate (confidence 1) [16F01056], AccurateRip returned [369B786C] (AR v2)
Track 12 cannot be verified as accurate (confidence 1) [3EFBF52D], AccurateRip returned [49F35DBA] (AR v2)
Track 13 cannot be verified as accurate (confidence 1) [DABE8FD5], AccurateRip returned [4E101F70] (AR v2)
Track 14 cannot be verified as accurate (confidence 1) [31957451], AccurateRip returned [8FAD8200] (AR v2)
Track 15 cannot be verified as accurate (confidence 1) [392F3C6C], AccurateRip returned [0FC409D6] (AR v2)
Track 16 cannot be verified as accurate (confidence 1) [79BD3EEB], AccurateRip returned [B9AFDB8C] (AR v2)
No tracks could be verified as accurate
You may have a different pressing from the one(s) in the database
End of status report
==== Log checksum AC3E37C3474D72946299245B80A63C02757699F96DAC2CC8D5CAE476B844B672 ====

Содержание индексной карты (.CUE)

REM GENRE Opera
REM DATE 1967
REM DISCID DF10B810
REM COMMENT "ExactAudioCopy v1.0b3"
PERFORMER "Souliotis, Del Monaco, Gobbi - Silvio Varviso - Orchestra e coro dell'Accademia di Santa Cecilia di Roma"
TITLE "Mascagni: Cavalleria Rusticana"
FILE "CDImage.ape" WAVE
TRACK 01 AUDIO
TITLE "Preludio"
PERFORMER "Souliotis, Del Monaco, Gobbi - Silvio Varviso - Orchestra e coro dell'Accademia di Santa Cecilia di Roma"
INDEX 00 00:00:00
INDEX 01 00:00:33
TRACK 02 AUDIO
TITLE "O Lola ch'hai di latti la cammisa"
PERFORMER "Souliotis, Del Monaco, Gobbi - Silvio Varviso - Orchestra e coro dell'Accademia di Santa Cecilia di Roma"
INDEX 01 02:36:23
TRACK 03 AUDIO
TITLE "Ah! - Gli aranci olezzano"
PERFORMER "Souliotis, Del Monaco, Gobbi - Silvio Varviso - Orchestra e coro dell'Accademia di Santa Cecilia di Roma"
INDEX 01 07:41:50
TRACK 04 AUDIO
TITLE "Dite, Mamma Lucia"
PERFORMER "Souliotis, Del Monaco, Gobbi - Silvio Varviso - Orchestra e coro dell'Accademia di Santa Cecilia di Roma"
INDEX 01 15:28:40
TRACK 05 AUDIO
TITLE "Il cavallo scalpita"
PERFORMER "Souliotis, Del Monaco, Gobbi - Silvio Varviso - Orchestra e coro dell'Accademia di Santa Cecilia di Roma"
INDEX 01 19:14:70
TRACK 06 AUDIO
TITLE "Beato voi, compar Alfio"
PERFORMER "Souliotis, Del Monaco, Gobbi - Silvio Varviso - Orchestra e coro dell'Accademia di Santa Cecilia di Roma"
INDEX 01 21:54:58
TRACK 07 AUDIO
TITLE "Voi lo sapeta, o mamma"
PERFORMER "Souliotis, Del Monaco, Gobbi - Silvio Varviso - Orchestra e coro dell'Accademia di Santa Cecilia di Roma"
INDEX 01 29:29:35
TRACK 08 AUDIO
TITLE "Tu qui, Santuzza?"
PERFORMER "Souliotis, Del Monaco, Gobbi - Silvio Varviso - Orchestra e coro dell'Accademia di Santa Cecilia di Roma"
INDEX 01 35:05:55
TRACK 09 AUDIO
TITLE "Fior di giaggiolo"
PERFORMER "Souliotis, Del Monaco, Gobbi - Silvio Varviso - Orchestra e coro dell'Accademia di Santa Cecilia di Roma"
INDEX 01 38:25:08
TRACK 10 AUDIO
TITLE "Ah! Io vedi, che hai ru detto?"
PERFORMER "Souliotis, Del Monaco, Gobbi - Silvio Varviso - Orchestra e coro dell'Accademia di Santa Cecilia di Roma"
INDEX 01 41:20:25
TRACK 11 AUDIO
TITLE "Oh! Il Signore mi manda, compar Alfio!"
PERFORMER "Souliotis, Del Monaco, Gobbi - Silvio Varviso - Orchestra e coro dell'Accademia di Santa Cecilia di Roma"
INDEX 01 46:37:40
TRACK 12 AUDIO
TITLE "Intermezzo"
PERFORMER "Souliotis, Del Monaco, Gobbi - Silvio Varviso - Orchestra e coro dell'Accademia di Santa Cecilia di Roma"
INDEX 01 51:50:25
TRACK 13 AUDIO
TITLE "A casa, a casa, amici"
PERFORMER "Souliotis, Del Monaco, Gobbi - Silvio Varviso - Orchestra e coro dell'Accademia di Santa Cecilia di Roma"
INDEX 01 55:32:13
TRACK 14 AUDIO
TITLE "Viva il vino spumeggiante"
PERFORMER "Souliotis, Del Monaco, Gobbi - Silvio Varviso - Orchestra e coro dell'Accademia di Santa Cecilia di Roma"
INDEX 01 58:13:25
TRACK 15 AUDIO
TITLE "A voi tutti, salute!"
PERFORMER "Souliotis, Del Monaco, Gobbi - Silvio Varviso - Orchestra e coro dell'Accademia di Santa Cecilia di Roma"
INDEX 01 60:52:65
TRACK 16 AUDIO
TITLE "Mamma, quel vino e generoso"
PERFORMER "Souliotis, Del Monaco, Gobbi - Silvio Varviso - Orchestra e coro dell'Accademia di Santa Cecilia di Roma"
INDEX 01 65:49:28



Показать сообщения:    

Текущее время: 05-Дек 17:32

Часовой пояс: UTC + 3


Вы не можете начинать темы
Вы не можете отвечать на сообщения
Вы не можете редактировать свои сообщения
Вы не можете удалять свои сообщения
Вы не можете голосовать в опросах
Вы не можете прикреплять файлы к сообщениям
Вы не можете скачивать файлы