(Operetta/Opera) Kalman - Die Csardasfurstin - Rothenberger, Gedda, Miljakovic, Anheisser - Matte - 2012, APE (image+.cue) lossless


 

[Цитировать]

(Operetta/Opera) Kalman - Die Csardasfurstin - Rothenberger, Gedda, Miljakovic, Anheisser - Matte - 2012, APE (image+.cue) lossless
Жанр: Operetta/Opera
Страна-производитель диска: EU
Год издания диска: 2012
Издатель (лейбл): Warner Classics (ex. EMI)
Номер по каталогу: 50999 9 53827 2 2
Дата записи: 1971
Аудиокодек: APE
Тип рипа: image+.cue
Битрейт аудио: lossless
Продолжительность: 46:02 + 48:56
Источник: собственный рип
Наличие сканов в содержимом раздачи: нет

Исполнители

Conductor - Willy Mattes
Chorus - Chor der Bayerischen Staatsoper München (Chorus Master - Wolfgang Baumgart)
Orchestra - Symphonie-Orchester Graunke
Sylva Varescu - Anneliese Rothenberger
Edwin Ronald - Nicolai Gedda
Graf Boni Käncsiänu - Willi Brokmeier
Komtesse Stasi - Olivera Miljakovic
General Rohnsdorff - Horst Sachtleben
Feri von Kerekes (Feri bäcsi) - Wolfgang Anheisser
Leopold Maria, Fürst von und zu Lippert-Weylersheim - Peter Brand

ТреклистCD1

01 Vorspiel
02 Act I - Nr.1 Lied: Heia, heia in den Bergen ist mein Heimatland
03 Dialog
04 Nr.2 Marsch-Ensemble: Alle sind wir Sunder - Die Madis vom Chantant
05 Dialog
06 Einlage (Das Veilchen vom Montmartre): Heut' nacht hab ich getraumt von dir
07 Dialog
08 Nr.3 Duett: Sylva ich will nur dich - Ja, Madchen gibt es wunderfeine
09 Dialog
10 Nr.4 Lied: Aus ist's mit der Liebe - Ganz ohne Weiber geht die Chose nicht
11. Dialog
12. Nr.5 Lied: O jag' dem Gluck nicht nach
13 Dialog
14 Nr.6 Finale I: Ich, Edwin Ronald
15 Hochzeitstanz
16 Jetzt, gerade jetzt!
17 Dialog - Melodram
18 Heiba, so verliebt zu sein

CD2

01 Act II - Nr.6.5 Entr'acte
02 Nr.7 Tanzwalzer: Erstrahlen die Lichter
03 Nr.8 Schwalbenduett: Ich warte auf das grobe Wunder - Machen wir's den Schwalben nach
04 Dialog
05 Nr.14 Lied: Nimm, Zigeuner, deine Geige - Jai Mamam, Bruderherz, ich kauf' mir die Welt
06 Dialog
07 Nr.9 Duett: Heller Jubel
08 Dialog
09 Nr.10 Quartett: Liebchen, mich reibt es
10 Tanz mit Dialog
11 Nr.11 Duett: Madel, guck - Das ist die Liebe
12 Dialog
13 Nr.12 Duett: Tanzen mocht' ich - Tausend kleine Engel singen
14 Dialog
15 Nr.13 Finale II: Verzeih', Papa - Lieben sich zwei Menschenkinder
16 Act III - Nr.13.5 Intermezzo
17 Dialog
18 Duett: Madel, guck - Das ist die Liebe
19 Dialog
20 Nr.16 Finale III: Tausend kleine Engel singen

Лог создания рипаCD1

Exact Audio Copy V1.0 beta 3 from 29. August 2011
EAC extraction logfile from 19. March 2015, 9:33
Rothenberg, Gedda, Brokmeier, Miljakovic, Anheiser - Willy Mattes - Chor der Bayerischen Staatsoper Munchen, Symphonie-Orchester Graunke / Kálmán: Die Csárdásfürstin - CD1
Used drive : TS8XDVDRTranscend Adapter: 2 ID: 1
Read mode : Secure
Utilize accurate stream : Yes
Defeat audio cache : Yes
Make use of C2 pointers : No
Read offset correction : 6
Overread into Lead-In and Lead-Out : No
Fill up missing offset samples with silence : Yes
Delete leading and trailing silent blocks : No
Null samples used in CRC calculations : Yes
Used interface : Native Win32 interface for Win NT & 2000
Used output format : Monkey's Audio Lossless Encoder
Selected bitrate : Normal Lossless Compression
Quality : High
Add ID3 tag : Yes
Command line compressor : C:\Program Files (x86)\Monkey's Audio\MAC.exe
Additional command line options : %source% %dest% -c3000
TOC of the extracted CD
Track | Start | Length | Start sector | End sector
---------------------------------------------------------
1 | 0:00.00 | 3:11.12 | 0 | 14336
2 | 3:11.12 | 3:41.30 | 14337 | 30941
3 | 6:52.42 | 1:16.73 | 30942 | 36714
4 | 8:09.40 | 3:17.02 | 36715 | 51491
5 | 11:26.42 | 0:33.50 | 51492 | 54016
6 | 12:00.17 | 3:21.35 | 54017 | 69126
7 | 15:21.52 | 0:15.00 | 69127 | 70251
8 | 15:36.52 | 4:45.05 | 70252 | 91631
9 | 20:21.57 | 0:22.58 | 91632 | 93339
10 | 20:44.40 | 2:59.47 | 93340 | 106811
11 | 23:44.12 | 0:13.58 | 106812 | 107844
12 | 23:57.70 | 5:58.42 | 107845 | 134736
13 | 29:56.37 | 2:38.63 | 134737 | 146649
14 | 32:35.25 | 5:05.27 | 146650 | 169551
15 | 37:40.52 | 1:14.43 | 169552 | 175144
16 | 38:55.20 | 2:21.57 | 175145 | 185776
17 | 41:17.02 | 2:20.00 | 185777 | 196276
18 | 43:37.02 | 2:20.40 | 196277 | 206816
Range status and errors
Selected range
Filename F:\Opera\Kalman - DIE CSARDASFUERSTIN - Rothenberger, Gedda, Miljakovic, Brokmeier - Mattes (1971)\CD1.wav
Peak level 99.8 %
Extraction speed 4.3 X
Range quality 99.9 %
Test CRC 4061B9B1
Copy CRC 4061B9B1
Copy OK
No errors occurred
AccurateRip summary
Track 1 accurately ripped (confidence 2) [4E2DCB5F] (AR v2)
Track 2 accurately ripped (confidence 2) [5642214C] (AR v2)
Track 3 accurately ripped (confidence 2) [73C22ED1] (AR v2)
Track 4 accurately ripped (confidence 2) [94CE45B8] (AR v2)
Track 5 accurately ripped (confidence 2) [0651F9C0] (AR v2)
Track 6 accurately ripped (confidence 2) [F413E9E5] (AR v2)
Track 7 accurately ripped (confidence 2) [CBA2FB01] (AR v2)
Track 8 accurately ripped (confidence 2) [B41B2EA4] (AR v2)
Track 9 accurately ripped (confidence 2) [B24C62E0] (AR v2)
Track 10 accurately ripped (confidence 2) [FF621B06] (AR v2)
Track 11 accurately ripped (confidence 2) [987D9BA5] (AR v2)
Track 12 accurately ripped (confidence 2) [C0993D79] (AR v2)
Track 13 accurately ripped (confidence 2) [E1B922BE] (AR v2)
Track 14 accurately ripped (confidence 2) [4C7F9837] (AR v2)
Track 15 accurately ripped (confidence 2) [6FD5E39D] (AR v2)
Track 16 accurately ripped (confidence 2) [EA693AA2] (AR v2)
Track 17 accurately ripped (confidence 2) [25A77FDF] (AR v2)
Track 18 accurately ripped (confidence 2) [9F8F255D] (AR v2)
All tracks accurately ripped
End of status report
==== Log checksum CB898E57C2A7487D7E36749E0CBA070BE51F8879873723178458A95FC8CB1DD8 ====

CD2

Exact Audio Copy V1.0 beta 3 from 29. August 2011
EAC extraction logfile from 19. March 2015, 10:07
Rothenberg, Gedda, Brokmeier, Miljakovic, Anheiser - Willy Mattes - Chor der Bayerischen Staatsoper Munchen, Symphonie-Orchester Graunke / Kálmán: Die Csárdásfürstin - CD2
Used drive : TS8XDVDRTranscend Adapter: 2 ID: 1
Read mode : Secure
Utilize accurate stream : Yes
Defeat audio cache : Yes
Make use of C2 pointers : No
Read offset correction : 6
Overread into Lead-In and Lead-Out : No
Fill up missing offset samples with silence : Yes
Delete leading and trailing silent blocks : No
Null samples used in CRC calculations : Yes
Used interface : Native Win32 interface for Win NT & 2000
Used output format : Monkey's Audio Lossless Encoder
Selected bitrate : Normal Lossless Compression
Quality : High
Add ID3 tag : Yes
Command line compressor : C:\Program Files (x86)\Monkey's Audio\MAC.exe
Additional command line options : %source% %dest% -c3000
TOC of the extracted CD
Track | Start | Length | Start sector | End sector
---------------------------------------------------------
1 | 0:00.00 | 2:04.55 | 0 | 9354
2 | 2:04.55 | 2:17.45 | 9355 | 19674
3 | 4:22.25 | 4:45.17 | 19675 | 41066
4 | 9:07.42 | 1:44.35 | 41067 | 48901
5 | 10:52.02 | 5:49.03 | 48902 | 75079
6 | 16:41.05 | 1:09.60 | 75080 | 80314
7 | 17:50.65 | 5:46.70 | 80315 | 106334
8 | 23:37.60 | 0:33.00 | 106335 | 108809
9 | 24:10.60 | 2:08.05 | 108810 | 118414
10 | 26:18.65 | 1:31.12 | 118415 | 125251
11 | 27:50.02 | 3:01.65 | 125252 | 138891
12 | 30:51.67 | 0:51.33 | 138892 | 142749
13 | 31:43.25 | 3:43.20 | 142750 | 159494
14 | 35:26.45 | 1:28.15 | 159495 | 166109
15 | 36:54.60 | 6:52.47 | 166110 | 197056
16 | 43:47.32 | 0:35.40 | 197057 | 199721
17 | 44:22.72 | 1:15.23 | 199722 | 205369
18 | 45:38.20 | 1:29.45 | 205370 | 212089
19 | 47:07.65 | 0:39.25 | 212090 | 215039
20 | 47:47.15 | 1:06.45 | 215040 | 220034
Range status and errors
Selected range
Filename F:\Opera\Kalman - DIE CSARDASFUERSTIN - Rothenberger, Gedda, Miljakovic, Brokmeier - Mattes (1971)\CD2.wav
Peak level 93.2 %
Extraction speed 4.4 X
Range quality 100.0 %
Test CRC 37196AB8
Copy CRC 37196AB8
Copy OK
No errors occurred
AccurateRip summary
Track 1 accurately ripped (confidence 2) [96BBB8F5] (AR v2)
Track 2 accurately ripped (confidence 2) [3D03C3FF] (AR v2)
Track 3 accurately ripped (confidence 2) [A2434501] (AR v2)
Track 4 accurately ripped (confidence 2) [F500C83A] (AR v2)
Track 5 accurately ripped (confidence 2) [B98520BF] (AR v2)
Track 6 accurately ripped (confidence 2) [8448D63E] (AR v2)
Track 7 accurately ripped (confidence 2) [6E31E91B] (AR v2)
Track 8 accurately ripped (confidence 2) [E52323BA] (AR v2)
Track 9 accurately ripped (confidence 2) [DDA8376D] (AR v2)
Track 10 accurately ripped (confidence 2) [418F1DF6] (AR v2)
Track 11 accurately ripped (confidence 2) [4E41D5DE] (AR v2)
Track 12 accurately ripped (confidence 2) [3EE00D14] (AR v2)
Track 13 accurately ripped (confidence 2) [4A907786] (AR v2)
Track 14 accurately ripped (confidence 2) [73DB11D6] (AR v2)
Track 15 accurately ripped (confidence 2) [E0453E8A] (AR v2)
Track 16 accurately ripped (confidence 2) [26024A56] (AR v2)
Track 17 accurately ripped (confidence 2) [E5DEF70D] (AR v2)
Track 18 accurately ripped (confidence 2) [6A03979D] (AR v2)
Track 19 accurately ripped (confidence 2) [708F62EF] (AR v2)
Track 20 accurately ripped (confidence 2) [D8EA1312] (AR v2)
All tracks accurately ripped
End of status report
==== Log checksum 24568799B64C627AF5FDBBA3A720FDAA3B23D3C1139737657EDCB548F99CDE2D ====

Содержание индексной карты (.CUE)CD1

REM GENRE Operette
REM DATE 1971
REM DISCID 0F0AC512
REM COMMENT "ExactAudioCopy v1.0b3"
PERFORMER "Rothenberg, Gedda, Brokmeier, Miljakovic, Anheiser - Willy Mattes - Chor der Bayerischen Staatsoper Munchen, Symphonie-Orchester Graunke"
TITLE "Kalman: Die Csardasfuerstin - CD1"
FILE "CD1.ape" WAVE
TRACK 01 AUDIO
TITLE "1. Vorspiel"
PERFORMER "Rothenberg, Gedda, Brokmeier, Miljakovic, Anheiser - Willy Mattes - Chor der Bayerischen Staatsoper Munchen, Symphonie-Orchester Graunke"
INDEX 01 00:00:00
TRACK 02 AUDIO
TITLE "2. Nr. 1. Heia, heia in den Bergen ist mein Heimatland"
PERFORMER "Rothenberg, Gedda, Brokmeier, Miljakovic, Anheiser - Willy Mattes - Chor der Bayerischen Staatsoper Munchen, Symphonie-Orchester Graunke"
INDEX 00 03:10:20
INDEX 01 03:11:12
TRACK 03 AUDIO
TITLE "3. Dialog"
PERFORMER "Rothenberg, Gedda, Brokmeier, Miljakovic, Anheiser - Willy Mattes - Chor der Bayerischen Staatsoper Munchen, Symphonie-Orchester Graunke"
INDEX 00 06:52:40
INDEX 01 06:52:42
TRACK 04 AUDIO
TITLE "4. Nr.2 Alle sind wir Suender - Die Maedis von Chantant"
PERFORMER "Rothenberg, Gedda, Brokmeier, Miljakovic, Anheiser - Willy Mattes - Chor der Bayerischen Staatsoper Munchen, Symphonie-Orchester Graunke"
INDEX 00 08:09:37
INDEX 01 08:09:40
TRACK 05 AUDIO
TITLE "5. Dialog"
PERFORMER "Rothenberg, Gedda, Brokmeier, Miljakovic, Anheiser - Willy Mattes - Chor der Bayerischen Staatsoper Munchen, Symphonie-Orchester Graunke"
INDEX 00 11:26:40
INDEX 01 11:26:42
TRACK 06 AUDIO
TITLE "6. Heut' nacht hab' ich getraeumt von dir"
PERFORMER "Rothenberg, Gedda, Brokmeier, Miljakovic, Anheiser - Willy Mattes - Chor der Bayerischen Staatsoper Munchen, Symphonie-Orchester Graunke"
INDEX 00 12:00:15
INDEX 01 12:00:17
TRACK 07 AUDIO
TITLE "7. Dialog"
PERFORMER "Rothenberg, Gedda, Brokmeier, Miljakovic, Anheiser - Willy Mattes - Chor der Bayerischen Staatsoper Munchen, Symphonie-Orchester Graunke"
INDEX 00 15:21:50
INDEX 01 15:21:52
TRACK 08 AUDIO
TITLE "8. Nr.3. Sylva ich will nur dich - Ja, Maedchen gibt es wunderfeine"
PERFORMER "Rothenberg, Gedda, Brokmeier, Miljakovic, Anheiser - Willy Mattes - Chor der Bayerischen Staatsoper Munchen, Symphonie-Orchester Graunke"
INDEX 00 15:36:50
INDEX 01 15:36:52
TRACK 09 AUDIO
TITLE "9. Dialog"
PERFORMER "Rothenberg, Gedda, Brokmeier, Miljakovic, Anheiser - Willy Mattes - Chor der Bayerischen Staatsoper Munchen, Symphonie-Orchester Graunke"
INDEX 00 20:21:55
INDEX 01 20:21:57
TRACK 10 AUDIO
TITLE "10. Nr.4. Aus ist' s mit der Liebe - Ganz ohne Weiber geht die Chose nicht"
PERFORMER "Rothenberg, Gedda, Brokmeier, Miljakovic, Anheiser - Willy Mattes - Chor der Bayerischen Staatsoper Munchen, Symphonie-Orchester Graunke"
INDEX 00 20:44:37
INDEX 01 20:44:40
TRACK 11 AUDIO
TITLE "11. Dialog"
PERFORMER "Rothenberg, Gedda, Brokmeier, Miljakovic, Anheiser - Willy Mattes - Chor der Bayerischen Staatsoper Munchen, Symphonie-Orchester Graunke"
INDEX 00 23:44:10
INDEX 01 23:44:12
TRACK 12 AUDIO
TITLE "12. Nr.5 O jag' dem Glueck nicht nach"
PERFORMER "Rothenberg, Gedda, Brokmeier, Miljakovic, Anheiser - Willy Mattes - Chor der Bayerischen Staatsoper Munchen, Symphonie-Orchester Graunke"
INDEX 00 23:57:67
INDEX 01 23:57:70
TRACK 13 AUDIO
TITLE "13. Dialog"
PERFORMER "Rothenberg, Gedda, Brokmeier, Miljakovic, Anheiser - Willy Mattes - Chor der Bayerischen Staatsoper Munchen, Symphonie-Orchester Graunke"
INDEX 00 29:56:35
INDEX 01 29:56:37
TRACK 14 AUDIO
TITLE "14. Nr. 6 Ich, Edwin Ronald"
PERFORMER "Rothenberg, Gedda, Brokmeier, Miljakovic, Anheiser - Willy Mattes - Chor der Bayerischen Staatsoper Munchen, Symphonie-Orchester Graunke"
INDEX 00 32:35:22
INDEX 01 32:35:25
TRACK 15 AUDIO
TITLE "15. Hochzeitstanz"
PERFORMER "Rothenberg, Gedda, Brokmeier, Miljakovic, Anheiser - Willy Mattes - Chor der Bayerischen Staatsoper Munchen, Symphonie-Orchester Graunke"
INDEX 00 37:40:50
INDEX 01 37:40:52
TRACK 16 AUDIO
TITLE "16. Jetzt, gerade jetzt !"
PERFORMER "Rothenberg, Gedda, Brokmeier, Miljakovic, Anheiser - Willy Mattes - Chor der Bayerischen Staatsoper Munchen, Symphonie-Orchester Graunke"
INDEX 00 38:55:17
INDEX 01 38:55:20
TRACK 17 AUDIO
TITLE "17. Dialog - Melodram"
PERFORMER "Rothenberg, Gedda, Brokmeier, Miljakovic, Anheiser - Willy Mattes - Chor der Bayerischen Staatsoper Munchen, Symphonie-Orchester Graunke"
INDEX 00 41:17:00
INDEX 01 41:17:02
TRACK 18 AUDIO
TITLE "18. Heissa, so verliebt zu sein"
PERFORMER "Rothenberg, Gedda, Brokmeier, Miljakovic, Anheiser - Willy Mattes - Chor der Bayerischen Staatsoper Munchen, Symphonie-Orchester Graunke"
INDEX 00 43:37:00
INDEX 01 43:37:02

CD2

REM GENRE Operette
REM DATE 1971
REM DISCID 180B7514
REM COMMENT "ExactAudioCopy v1.0b3"
PERFORMER "Rothenberg, Gedda, Brokmeier, Miljakovic, Anheiser - Willy Mattes - Chor der Bayerischen Staatsoper Munchen, Symphonie-Orchester Graunke"
TITLE "Kalman: Die Csardasfuerstin - CD2"
FILE "CD2.ape" WAVE
TRACK 01 AUDIO
TITLE "1. Nr. 6 Entr' acte"
PERFORMER "Rothenberg, Gedda, Brokmeier, Miljakovic, Anheiser - Willy Mattes - Chor der Bayerischen Staatsoper Munchen, Symphonie-Orchester Graunke"
INDEX 01 00:00:00
TRACK 02 AUDIO
TITLE "2. Nr. 7 Erstrahlen die Lichter"
PERFORMER "Rothenberg, Gedda, Brokmeier, Miljakovic, Anheiser - Willy Mattes - Chor der Bayerischen Staatsoper Munchen, Symphonie-Orchester Graunke"
INDEX 00 02:04:50
INDEX 01 02:04:55
TRACK 03 AUDIO
TITLE "3. Nr. 8 Ich warte auf das grosse Wunder - Machen wir's den Schwalben nach"
PERFORMER "Rothenberg, Gedda, Brokmeier, Miljakovic, Anheiser - Willy Mattes - Chor der Bayerischen Staatsoper Munchen, Symphonie-Orchester Graunke"
INDEX 00 04:22:22
INDEX 01 04:22:25
TRACK 04 AUDIO
TITLE "4. Dialog"
PERFORMER "Rothenberg, Gedda, Brokmeier, Miljakovic, Anheiser - Willy Mattes - Chor der Bayerischen Staatsoper Munchen, Symphonie-Orchester Graunke"
INDEX 00 09:07:40
INDEX 01 09:07:42
TRACK 05 AUDIO
TITLE "5. Nr. 14 Nimm, Zigeuner, deine Geige - Jai Mamam, Bruderherz, ich kauf' mir die Welt"
PERFORMER "Rothenberg, Gedda, Brokmeier, Miljakovic, Anheiser - Willy Mattes - Chor der Bayerischen Staatsoper Munchen, Symphonie-Orchester Graunke"
INDEX 00 10:52:00
INDEX 01 10:52:02
TRACK 06 AUDIO
TITLE "6. Dialog"
PERFORMER "Rothenberg, Gedda, Brokmeier, Miljakovic, Anheiser - Willy Mattes - Chor der Bayerischen Staatsoper Munchen, Symphonie-Orchester Graunke"
INDEX 00 16:41:02
INDEX 01 16:41:05
TRACK 07 AUDIO
TITLE "7. Nr. 9 Heller Jubel"
PERFORMER "Rothenberg, Gedda, Brokmeier, Miljakovic, Anheiser - Willy Mattes - Chor der Bayerischen Staatsoper Munchen, Symphonie-Orchester Graunke"
INDEX 00 17:50:62
INDEX 01 17:50:65
TRACK 08 AUDIO
TITLE "8. Dialog"
PERFORMER "Rothenberg, Gedda, Brokmeier, Miljakovic, Anheiser - Willy Mattes - Chor der Bayerischen Staatsoper Munchen, Symphonie-Orchester Graunke"
INDEX 00 23:37:55
INDEX 01 23:37:60
TRACK 09 AUDIO
TITLE "9. Nr. 10 Liebchen, mich reisst es"
PERFORMER "Rothenberg, Gedda, Brokmeier, Miljakovic, Anheiser - Willy Mattes - Chor der Bayerischen Staatsoper Munchen, Symphonie-Orchester Graunke"
INDEX 00 24:10:57
INDEX 01 24:10:60
TRACK 10 AUDIO
TITLE "10. Tanz mit Dialog"
PERFORMER "Rothenberg, Gedda, Brokmeier, Miljakovic, Anheiser - Willy Mattes - Chor der Bayerischen Staatsoper Munchen, Symphonie-Orchester Graunke"
INDEX 00 26:18:62
INDEX 01 26:18:65
TRACK 11 AUDIO
TITLE "11. Nr. 11 Maedel, guck - Das ist die Liebe"
PERFORMER "Rothenberg, Gedda, Brokmeier, Miljakovic, Anheiser - Willy Mattes - Chor der Bayerischen Staatsoper Munchen, Symphonie-Orchester Graunke"
INDEX 00 27:50:00
INDEX 01 27:50:02
TRACK 12 AUDIO
TITLE "12. Dialog"
PERFORMER "Rothenberg, Gedda, Brokmeier, Miljakovic, Anheiser - Willy Mattes - Chor der Bayerischen Staatsoper Munchen, Symphonie-Orchester Graunke"
INDEX 00 30:51:65
INDEX 01 30:51:67
TRACK 13 AUDIO
TITLE "13.. Nr. 12 Tanzen moecht' ich - Tausend kleine Engel singen"
PERFORMER "Rothenberg, Gedda, Brokmeier, Miljakovic, Anheiser - Willy Mattes - Chor der Bayerischen Staatsoper Munchen, Symphonie-Orchester Graunke"
INDEX 00 31:43:22
INDEX 01 31:43:25
TRACK 14 AUDIO
TITLE "14. Dialog"
PERFORMER "Rothenberg, Gedda, Brokmeier, Miljakovic, Anheiser - Willy Mattes - Chor der Bayerischen Staatsoper Munchen, Symphonie-Orchester Graunke"
INDEX 00 35:26:42
INDEX 01 35:26:45
TRACK 15 AUDIO
TITLE "15. Nr. 13 Verzeih', Papa - Lieben sich zwei Menschenkinder"
PERFORMER "Rothenberg, Gedda, Brokmeier, Miljakovic, Anheiser - Willy Mattes - Chor der Bayerischen Staatsoper Munchen, Symphonie-Orchester Graunke"
INDEX 00 36:54:58
INDEX 01 36:54:60
TRACK 16 AUDIO
TITLE "16. Nr. 13 Intermezzo"
PERFORMER "Rothenberg, Gedda, Brokmeier, Miljakovic, Anheiser - Willy Mattes - Chor der Bayerischen Staatsoper Munchen, Symphonie-Orchester Graunke"
INDEX 00 43:42:52
INDEX 01 43:47:32
TRACK 17 AUDIO
TITLE "17. Dialog"
PERFORMER "Rothenberg, Gedda, Brokmeier, Miljakovic, Anheiser - Willy Mattes - Chor der Bayerischen Staatsoper Munchen, Symphonie-Orchester Graunke"
INDEX 00 44:22:70
INDEX 01 44:22:72
TRACK 18 AUDIO
TITLE "18. Nr. 15 Maedel, guck - Das ist die Liebe"
PERFORMER "Rothenberg, Gedda, Brokmeier, Miljakovic, Anheiser - Willy Mattes - Chor der Bayerischen Staatsoper Munchen, Symphonie-Orchester Graunke"
INDEX 00 45:38:17
INDEX 01 45:38:20
TRACK 19 AUDIO
TITLE "19. Dialog"
PERFORMER "Rothenberg, Gedda, Brokmeier, Miljakovic, Anheiser - Willy Mattes - Chor der Bayerischen Staatsoper Munchen, Symphonie-Orchester Graunke"
INDEX 00 47:07:60
INDEX 01 47:07:65
TRACK 20 AUDIO
TITLE "20. Nr. 16 Tausend kleine Engel singen"
PERFORMER "Rothenberg, Gedda, Brokmeier, Miljakovic, Anheiser - Willy Mattes - Chor der Bayerischen Staatsoper Munchen, Symphonie-Orchester Graunke"
INDEX 00 47:47:12
INDEX 01 47:47:15



Показать сообщения:    

Текущее время: 02-Дек 21:15

Часовой пояс: UTC + 3


Вы не можете начинать темы
Вы не можете отвечать на сообщения
Вы не можете редактировать свои сообщения
Вы не можете удалять свои сообщения
Вы не можете голосовать в опросах
Вы не можете прикреплять файлы к сообщениям
Вы не можете скачивать файлы