(Opera, Vocal) The Art of Pilar Lorengar (Operatic Soprano Arias by Puccini, Mozart, Bizet, Wagner, Strauss and Zarzuela Songs), 1966-1977- compilation of Studio recordings / FLAC (tracks+.cue), lossless


 

[Цитировать]

Pilar Lorengar - Arias
Жанр: Opera, Vocal
Страна-производитель диска: CШA
Год издания диска: 2002
Издатель (лейбл): DECCA
Дата записи: Various
Аудиокодек: FLAC
Тип рипа: tracks+.cue
Битрейт аудио: lossless
Продолжительность: 153:48
Источник: релизер (Guillermo)
Исполнители:
Pilar Lorengar, soprano.
Recording's Dates:
July, 1966, Academy of St. Cecilia, Rome, Italy (tracks 1-3, 5-7, 9, 13-14)
December, 1978, Kingsway Hall, London, England (tracks 4, 8)
December, 1971, Sofiensaal, Vienna, Austria (tracks 10, 15-17)
September, 1969 & October, 1969, Sofiensaal, Vienna, Austria (track 11)
July, 1973, Kingsway Hall, London, England (track 12)
July, 1977, Rosslyn Hill Chapel, Hampstead, London, England (Disc 2)

Лог создания рипаЛог создания рипа CD 1

Exact Audio Copy V1.0 beta 3 from 29. August 2011
EAC extraction logfile from 19. August 2015, 19:12
Pilar Lorengar / The Art of Pilar Lorengar 1/2
Used drive : HL-DT-STDVDRAM GH24NSC0 Adapter: 3 ID: 0
Read mode : Secure
Utilize accurate stream : Yes
Defeat audio cache : Yes
Make use of C2 pointers : No
Read offset correction : 6
Overread into Lead-In and Lead-Out : No
Fill up missing offset samples with silence : Yes
Delete leading and trailing silent blocks : No
Null samples used in CRC calculations : Yes
Used interface : Native Win32 interface for Win NT & 2000
Gap handling : Appended to previous track
Used output format : User Defined Encoder
Selected bitrate : 768 kBit/s
Quality : High
Add ID3 tag : No
Command line compressor : C:\Program Files (x86)\Exact Audio Copy\FLAC\FLAC.EXE
Additional command line options : -8 -V -T "ARTIST=%artist%" -T "TITLE=%title%" -T "ALBUM=%albumtitle%" -T "DATE=%year%" -T "TRACKNUMBER=%tracknr%" -T "GENRE=%genre%" -T "PERFORMER=%albuminterpret%" -T "COMPOSER=%composer%" %haslyrics%--tag-from-file=LYRICS="%lyricsfile%"%haslyrics% -T "ALBUMARTIST=%albumartist%" -T "DISCNUMBER=%cdnumber%" -T "TOTALDISCS=%totalcds%" -T "TOTALTRACKS=%numtracks%" -T "COMMENT=%comment%" %source% -o %dest%
TOC of the extracted CD
Track | Start | Length | Start sector | End sector
---------------------------------------------------------
1 | 0:00.00 | 4:56.25 | 0 | 22224
2 | 4:56.25 | 2:52.35 | 22225 | 35159
3 | 7:48.60 | 4:32.15 | 35160 | 55574
4 | 12:21.00 | 2:16.00 | 55575 | 65774
5 | 14:37.00 | 2:29.45 | 65775 | 76994
6 | 17:06.45 | 2:21.45 | 76995 | 87614
7 | 19:28.15 | 4:00.15 | 87615 | 105629
8 | 23:28.30 | 3:17.45 | 105630 | 120449
9 | 26:46.00 | 6:19.00 | 120450 | 148874
10 | 33:05.00 | 6:24.00 | 148875 | 177674
11 | 39:29.00 | 4:27.22 | 177675 | 197721
12 | 43:56.22 | 4:31.28 | 197722 | 218074
13 | 48:27.50 | 5:04.25 | 218075 | 240899
14 | 53:32.00 | 6:20.50 | 240900 | 269449
15 | 59:52.50 | 7:29.25 | 269450 | 303149
16 | 67:22.00 | 3:24.70 | 303150 | 318519
17 | 70:46.70 | 5:42.05 | 318520 | 344174
Track 1
Filename f:\Users\Guillermo\Desktop\EAC convertidos\01 Puccini - La Bohème - Si, mi chiamano Mimi.wav
Pre-gap length 0:00:02.00
Peak level 78.8 %
Extraction speed 1.5 X
Track quality 99.9 %
Test CRC BE2CE8B7
Copy CRC BE2CE8B7
Copy OK
Track 2
Filename f:\Users\Guillermo\Desktop\EAC convertidos\02 Puccini - La rondini - Chi il bel sogno di Doretta.wav
Peak level 73.8 %
Extraction speed 1.7 X
Track quality 100.0 %
Test CRC FDB98069
Copy CRC FDB98069
Copy OK
Track 3
Filename f:\Users\Guillermo\Desktop\EAC convertidos\03 Puccini - Madama Butterfly - Un bel di.wav
Peak level 89.9 %
Extraction speed 2.0 X
Track quality 100.0 %
Test CRC F98E1F91
Copy CRC F98E1F91
Copy OK
Track 4
Filename f:\Users\Guillermo\Desktop\EAC convertidos\04 Puccini - Madama Butterfly - Tu, tu, piccolo Iddio!.wav
Peak level 97.6 %
Extraction speed 1.8 X
Track quality 100.0 %
Test CRC 558E522B
Copy CRC 558E522B
Copy OK
Track 5
Filename f:\Users\Guillermo\Desktop\EAC convertidos\05 Puccini - Turandot - Tu che di gel sei cinta.wav
Peak level 94.3 %
Extraction speed 1.9 X
Track quality 100.0 %
Test CRC 0A6BF493
Copy CRC 0A6BF493
Copy OK
Track 6
Filename f:\Users\Guillermo\Desktop\EAC convertidos\06 Puccini - Gianni Schicchi - O mio babbino caro.wav
Peak level 80.4 %
Extraction speed 1.9 X
Track quality 100.0 %
Test CRC 4AA25A0E
Copy CRC 4AA25A0E
Copy OK
Track 7
Filename f:\Users\Guillermo\Desktop\EAC convertidos\07 Puccini - Suor Angelica - Senza mamma, o bimbo, tu sei morto.wav
Peak level 92.9 %
Extraction speed 2.3 X
Track quality 100.0 %
Test CRC 6CED2E13
Copy CRC 6CED2E13
Copy OK
Track 8
Filename f:\Users\Guillermo\Desktop\EAC convertidos\08 Puccini - Tosca - Vissi d'arte.wav
Peak level 86.4 %
Extraction speed 2.3 X
Track quality 100.0 %
Test CRC 3F5A5AC1
Copy CRC 3F5A5AC1
Copy OK
Track 9
Filename f:\Users\Guillermo\Desktop\EAC convertidos\09 Dvorak - Rusalka - Mesicku na nebi hlubokem.wav
Peak level 76.5 %
Extraction speed 2.7 X
Track quality 100.0 %
Test CRC 0B85F3CC
Copy CRC 0B85F3CC
Copy OK
Track 10
Filename f:\Users\Guillermo\Desktop\EAC convertidos\10 Mozart - Le nozze di Figaro - E Susanna non vien! ... Dove sono i bei momenti.wav
Peak level 81.0 %
Extraction speed 2.6 X
Track quality 99.9 %
Test CRC 6815714F
Copy CRC 6815714F
Copy OK
Track 11
Filename f:\Users\Guillermo\Desktop\EAC convertidos\11 Mozart - Die Zauberflöte - Ach, ich fühl's, es ist verschwunden.wav
Peak level 54.6 %
Extraction speed 2.9 X
Track quality 100.0 %
Test CRC 0C01EA8E
Copy CRC 0C01EA8E
Copy OK
Track 12
Filename f:\Users\Guillermo\Desktop\EAC convertidos\12 Mozart - Cosi fan tutte - Temerari! ... Come scoglio.wav
Peak level 70.1 %
Extraction speed 3.0 X
Track quality 100.0 %
Test CRC 8A3B1C8B
Copy CRC 8A3B1C8B
Copy OK
Track 13
Filename f:\Users\Guillermo\Desktop\EAC convertidos\13 Charpentier - Louise - Depuis le jour.wav
Peak level 95.5 %
Extraction speed 2.8 X
Track quality 99.9 %
Test CRC 0E924D66
Copy CRC 0E924D66
Copy OK
Track 14
Filename f:\Users\Guillermo\Desktop\EAC convertidos\14 Bizet - Carmen - C'est des contrebandiers ... Je dis que rien ne m´epouvante.wav
Peak level 97.6 %
Extraction speed 3.4 X
Track quality 100.0 %
Test CRC D5F0FF5A
Copy CRC D5F0FF5A
Copy OK
Track 15
Filename f:\Users\Guillermo\Desktop\EAC convertidos\15 R. Strauss - Arabelia - Er ist der Richtige nicht für mich.wav
Peak level 80.8 %
Extraction speed 3.2 X
Track quality 99.9 %
Test CRC C4911ACE
Copy CRC C4911ACE
Copy OK
Track 16
Filename f:\Users\Guillermo\Desktop\EAC convertidos\16 Wagner - Tannhäuser - Dich, teure Halle.wav
Peak level 93.6 %
Extraction speed 3.3 X
Track quality 100.0 %
Test CRC 22E77838
Copy CRC 22E77838
Copy OK
Track 17
Filename f:\Users\Guillermo\Desktop\EAC convertidos\17 Gluck, das mir verblieb.wav
Peak level 76.9 %
Extraction speed 3.7 X
Track quality 100.0 %
Test CRC 4D538F4C
Copy CRC 4D538F4C
Copy OK
No errors occurred
End of status report
==== Log checksum B6E01BCED0CCDF82DAF3E9AE9413CCBB1CD493DD77F2381647C517C59036325F ====

Лог создания рипа CD 2

Exact Audio Copy V1.0 beta 3 from 29. August 2011
EAC extraction logfile from 19. August 2015, 20:22
Pilar Lorengar / The Art of Pilar Lorengar
Used drive : HL-DT-STDVDRAM GH24NSC0 Adapter: 3 ID: 0
Read mode : Secure
Utilize accurate stream : Yes
Defeat audio cache : Yes
Make use of C2 pointers : No
Read offset correction : 6
Overread into Lead-In and Lead-Out : No
Fill up missing offset samples with silence : Yes
Delete leading and trailing silent blocks : No
Null samples used in CRC calculations : Yes
Used interface : Native Win32 interface for Win NT & 2000
Gap handling : Appended to previous track
Used output format : User Defined Encoder
Selected bitrate : 768 kBit/s
Quality : High
Add ID3 tag : No
Command line compressor : C:\Program Files (x86)\Exact Audio Copy\FLAC\FLAC.EXE
Additional command line options : -8 -V -T "ARTIST=%artist%" -T "TITLE=%title%" -T "ALBUM=%albumtitle%" -T "DATE=%year%" -T "TRACKNUMBER=%tracknr%" -T "GENRE=%genre%" -T "PERFORMER=%albuminterpret%" -T "COMPOSER=%composer%" %haslyrics%--tag-from-file=LYRICS="%lyricsfile%"%haslyrics% -T "ALBUMARTIST=%albumartist%" -T "DISCNUMBER=%cdnumber%" -T "TOTALDISCS=%totalcds%" -T "TOTALTRACKS=%numtracks%" -T "COMMENT=%comment%" %source% -o %dest%
TOC of the extracted CD
Track | Start | Length | Start sector | End sector
---------------------------------------------------------
1 | 0:00.00 | 7:00.00 | 0 | 31499
2 | 7:00.00 | 3:44.30 | 31500 | 48329
3 | 10:44.30 | 2:20.45 | 48330 | 58874
4 | 13:05.00 | 1:15.30 | 58875 | 64529
5 | 14:20.30 | 2:58.45 | 64530 | 77924
6 | 17:19.00 | 0:56.50 | 77925 | 82174
7 | 18:15.50 | 1:29.25 | 82175 | 88874
8 | 19:45.00 | 2:50.15 | 88875 | 101639
9 | 22:35.15 | 1:26.15 | 101640 | 108104
10 | 24:01.30 | 1:44.25 | 108105 | 115929
11 | 25:45.55 | 2:26.65 | 115930 | 126944
12 | 28:12.45 | 2:12.40 | 126945 | 136884
13 | 30:25.10 | 3:03.50 | 136885 | 150659
14 | 33:28.60 | 2:58.00 | 150660 | 164009
15 | 36:26.60 | 1:58.15 | 164010 | 172874
16 | 38:25.00 | 2:32.00 | 172875 | 184274
17 | 40:57.00 | 1:19.00 | 184275 | 190199
18 | 42:16.00 | 2:19.45 | 190200 | 200669
19 | 44:35.45 | 3:02.30 | 200670 | 214349
20 | 47:38.00 | 5:27.00 | 214350 | 238874
21 | 53:05.00 | 4:40.00 | 238875 | 259874
22 | 57:45.00 | 8:07.55 | 259875 | 296454
23 | 65:52.55 | 4:20.10 | 296455 | 315964
24 | 70:12.65 | 3:40.60 | 315965 | 332524
25 | 73:53.50 | 3:29.25 | 332525 | 348224
Track 1
Filename f:\Users\Guillermo\Desktop\EAC convertidos\01 Granados , Goyescas - La maja y el ruiseñor.wav
Pre-gap length 0:00:02.00
Peak level 99.4 %
Extraction speed 1.7 X
Track quality 99.9 %
Test CRC 3BA3C5A0
Copy CRC 3BA3C5A0
Copy OK
Track 2
Filename f:\Users\Guillermo\Desktop\EAC convertidos\02 Granados , 9 tonadillas - La maja de Goya.wav
Peak level 89.1 %
Extraction speed 1.9 X
Track quality 100.0 %
Test CRC 7F575821
Copy CRC 7F575821
Copy OK
Track 3
Filename f:\Users\Guillermo\Desktop\EAC convertidos\03 Granados , 9 tonadillas - amor y odio.wav
Peak level 76.4 %
Extraction speed 1.8 X
Track quality 100.0 %
Test CRC 0FCC81D3
Copy CRC 0FCC81D3
Copy OK
Track 4
Filename f:\Users\Guillermo\Desktop\EAC convertidos\04 Granados , 9 tonadillas - El tra-la-lá y el punteado.wav
Peak level 69.8 %
Extraction speed 1.5 X
Track quality 100.0 %
Test CRC 267DC818
Copy CRC 267DC818
Copy OK
Track 5
Filename f:\Users\Guillermo\Desktop\EAC convertidos\05 Granados , 9 tonadillas - El majo olvidado.wav
Peak level 64.9 %
Extraction speed 2.0 X
Track quality 100.0 %
Test CRC 0456181D
Copy CRC 0456181D
Copy OK
Track 6
Filename f:\Users\Guillermo\Desktop\EAC convertidos\06 Granados , 9 tonadillas - El majo timido.wav
Peak level 52.0 %
Extraction speed 1.4 X
Track quality 100.0 %
Test CRC 17BCA6B4
Copy CRC 17BCA6B4
Copy OK
Track 7
Filename f:\Users\Guillermo\Desktop\EAC convertidos\07 Granados , 9 tonadillas - Callejeo.wav
Peak level 63.6 %
Extraction speed 1.7 X
Track quality 100.0 %
Test CRC 5CB597E3
Copy CRC 5CB597E3
Copy OK
Track 8
Filename f:\Users\Guillermo\Desktop\EAC convertidos\08 Granados , 9 tonadillas - El mirar de la maja.wav
Peak level 75.6 %
Extraction speed 2.1 X
Track quality 100.0 %
Test CRC 55AD2A41
Copy CRC 55AD2A41
Copy OK
Track 9
Filename f:\Users\Guillermo\Desktop\EAC convertidos\09 Granados , 9 tonadillas - Las currutacas modestas.wav
Peak level 57.7 %
Extraction speed 1.8 X
Track quality 100.0 %
Test CRC E198D346
Copy CRC E198D346
Copy OK
Track 10
Filename f:\Users\Guillermo\Desktop\EAC convertidos\10 Granados , 9 tonadillas - El majo discreto.wav
Peak level 63.6 %
Extraction speed 1.9 X
Track quality 100.0 %
Test CRC 9215E494
Copy CRC 9215E494
Copy OK
Track 11
Filename f:\Users\Guillermo\Desktop\EAC convertidos\11 Granados , 3 Majas dolorosas - La maja dolorosa, número 1.wav
Peak level 73.1 %
Extraction speed 2.2 X
Track quality 100.0 %
Test CRC A99DF1EA
Copy CRC A99DF1EA
Copy OK
Track 12
Filename f:\Users\Guillermo\Desktop\EAC convertidos\12 Granados , 3 Majas dolorosas - La maja dolorosa, número 2.wav
Peak level 59.3 %
Extraction speed 2.2 X
Track quality 100.0 %
Test CRC 81DB445E
Copy CRC 81DB445E
Copy OK
Track 13
Filename f:\Users\Guillermo\Desktop\EAC convertidos\13 Granados , 3 Majas dolorosas - La maja dolorosa, número 3.wav
Peak level 71.0 %
Extraction speed 2.5 X
Track quality 100.0 %
Test CRC 715A797E
Copy CRC 715A797E
Copy OK
Track 14
Filename f:\Users\Guillermo\Desktop\EAC convertidos\14 Granados , 6 Canciones amatorias - Mira que soy niña.wav
Peak level 58.8 %
Extraction speed 2.5 X
Track quality 100.0 %
Test CRC 0B9FFBFA
Copy CRC 0B9FFBFA
Copy OK
Track 15
Filename f:\Users\Guillermo\Desktop\EAC convertidos\15 Granados , 6 Canciones amatorias - Iban al pinar.wav
Peak level 87.9 %
Extraction speed 1.7 X
Track quality 99.8 %
Test CRC 0D44EE8E
Copy CRC 0D44EE8E
Copy OK
Track 16
Filename f:\Users\Guillermo\Desktop\EAC convertidos\16 Granados , 6 Canciones amatorias - Mañanica era.wav
Peak level 46.5 %
Extraction speed 2.0 X
Track quality 99.8 %
Test CRC 818AD2D2
Copy CRC 818AD2D2
Copy OK
Track 17
Filename f:\Users\Guillermo\Desktop\EAC convertidos\17 Granados , 6 Canciones amatorias - No lloréis, ojuelos.wav
Peak level 71.1 %
Extraction speed 1.4 X
Track quality 99.7 %
Test CRC 57D580A9
Copy CRC 57D580A9
Copy OK
Track 18
Filename f:\Users\Guillermo\Desktop\EAC convertidos\18 Granados , 6 Canciones amatorias - Llorad, corazón.wav
Peak level 43.6 %
Extraction speed 2.0 X
Track quality 99.8 %
Test CRC E90713D6
Copy CRC E90713D6
Copy OK
Track 19
Filename f:\Users\Guillermo\Desktop\EAC convertidos\19 Granados , 6 Canciones amatorias - Gracia mía.wav
Peak level 74.8 %
Extraction speed 2.8 X
Track quality 100.0 %
Test CRC DE4672E8
Copy CRC DE4672E8
Copy OK
Track 20
Filename f:\Users\Guillermo\Desktop\EAC convertidos\20 Falla , La vida breve - Vican los que rien.wav
Peak level 92.7 %
Extraction speed 3.2 X
Track quality 100.0 %
Test CRC F3213309
Copy CRC F3213309
Copy OK
Track 21
Filename f:\Users\Guillermo\Desktop\EAC convertidos\21 Falla , La vida breve - Allí está, riyendo.wav
Peak level 97.5 %
Extraction speed 3.3 X
Track quality 100.0 %
Test CRC 8B28A614
Copy CRC 8B28A614
Copy OK
Track 22
Filename f:\Users\Guillermo\Desktop\EAC convertidos\22 Turina , Canto a Sevilla - Semana Santa.wav
Peak level 97.9 %
Extraction speed 3.7 X
Track quality 100.0 %
Test CRC BAAF373E
Copy CRC BAAF373E
Copy OK
Track 23
Filename f:\Users\Guillermo\Desktop\EAC convertidos\23 Turina , Canto a Sevilla - Las fuentecitas.wav
Peak level 97.9 %
Extraction speed 3.5 X
Track quality 100.0 %
Test CRC 6429B105
Copy CRC 6429B105
Copy OK
Track 24
Filename f:\Users\Guillermo\Desktop\EAC convertidos\24 Turina , Canto a Sevilla - El fantasma.wav
Peak level 97.9 %
Extraction speed 3.5 X
Track quality 100.0 %
Test CRC 67B12FF1
Copy CRC 67B12FF1
Copy OK
Track 25
Filename f:\Users\Guillermo\Desktop\EAC convertidos\25 Turina , Canto a Sevilla - La Giralda.wav
Peak level 98.0 %
Extraction speed 3.5 X
Track quality 100.0 %
Test CRC C4B48970
Copy CRC C4B48970
Copy OK
No errors occurred
End of status report
==== Log checksum 1693A5700F887E2DCC7156E2EAAC178EA5EE0E35D509ACF984D802FA460F525F ====

Содержание индексной карты (.CUE)Содержание индексной карты (.CUE) CD 1

REM GENRE Opera
REM DATE 2003
REM DISCID F911ED11
REM COMMENT "ExactAudioCopy v1.0b3"
FILE "01 Puccini - La Bohиme - Si, mi chiamano Mimi.wav" WAVE
TRACK 01 AUDIO
INDEX 01 00:00:00
FILE "02 Puccini - La rondini - Chi il bel sogno di Doretta.wav" WAVE
TRACK 02 AUDIO
INDEX 01 00:00:00
FILE "03 Puccini - Madama Butterfly - Un bel di.wav" WAVE
TRACK 03 AUDIO
INDEX 01 00:00:00
FILE "04 Puccini - Madama Butterfly - Tu, tu, piccolo Iddio!.wav" WAVE
TRACK 04 AUDIO
INDEX 01 00:00:00
FILE "05 Puccini - Turandot - Tu che di gel sei cinta.wav" WAVE
TRACK 05 AUDIO
INDEX 01 00:00:00
FILE "06 Puccini - Gianni Schicchi - O mio babbino caro.wav" WAVE
TRACK 06 AUDIO
INDEX 01 00:00:00
FILE "07 Puccini - Suor Angelica - Senza mamma, o bimbo, tu sei morto.wav" WAVE
TRACK 07 AUDIO
INDEX 01 00:00:00
FILE "08 Puccini - Tosca - Vissi d'arte.wav" WAVE
TRACK 08 AUDIO
INDEX 01 00:00:00
FILE "09 Dvorak - Rusalka - Mesicku na nebi hlubokem.wav" WAVE
TRACK 09 AUDIO
INDEX 01 00:00:00
FILE "10 Mozart - Le nozze di Figaro - E Susanna non vien! ... Dove sono i bei momenti.wav" WAVE
TRACK 10 AUDIO
INDEX 01 00:00:00
FILE "11 Mozart - Die Zauberflцte - Ach, ich fьhl's, es ist verschwunden.wav" WAVE
TRACK 11 AUDIO
INDEX 01 00:00:00
FILE "12 Mozart - Cosi fan tutte - Temerari! ... Come scoglio.wav" WAVE
TRACK 12 AUDIO
INDEX 01 00:00:00
FILE "13 Charpentier - Louise - Depuis le jour.wav" WAVE
TRACK 13 AUDIO
INDEX 01 00:00:00
FILE "14 Bizet - Carmen - C'est des contrebandiers ... Je dis que rien ne mґepouvante.wav" WAVE
TRACK 14 AUDIO
INDEX 01 00:00:00
FILE "15 R. Strauss - Arabelia - Er ist der Richtige nicht fьr mich.wav" WAVE
TRACK 15 AUDIO
INDEX 01 00:00:00
FILE "16 Wagner - Tannhдuser - Dich, teure Halle.wav" WAVE
TRACK 16 AUDIO
INDEX 01 00:00:00
FILE "17 Gluck, das mir verblieb.wav" WAVE
TRACK 17 AUDIO
INDEX 01 00:00:00

Содержание индексной карты (.CUE) CD 2

REM GENRE Vocal
REM DATE 2003
REM DISCID 81122319
REM COMMENT "ExactAudioCopy v1.0b3"
FILE "01 Granados , Goyescas - La maja y el ruiseсor.wav" WAVE
TRACK 01 AUDIO
INDEX 01 00:00:00
FILE "02 Granados , 9 tonadillas - La maja de Goya.wav" WAVE
TRACK 02 AUDIO
INDEX 01 00:00:00
FILE "03 Granados , 9 tonadillas - amor y odio.wav" WAVE
TRACK 03 AUDIO
INDEX 01 00:00:00
FILE "04 Granados , 9 tonadillas - El tra-la-lб y el punteado.wav" WAVE
TRACK 04 AUDIO
INDEX 01 00:00:00
FILE "05 Granados , 9 tonadillas - El majo olvidado.wav" WAVE
TRACK 05 AUDIO
INDEX 01 00:00:00
FILE "06 Granados , 9 tonadillas - El majo timido.wav" WAVE
TRACK 06 AUDIO
INDEX 01 00:00:00
FILE "07 Granados , 9 tonadillas - Callejeo.wav" WAVE
TRACK 07 AUDIO
INDEX 01 00:00:00
FILE "08 Granados , 9 tonadillas - El mirar de la maja.wav" WAVE
TRACK 08 AUDIO
INDEX 01 00:00:00
FILE "09 Granados , 9 tonadillas - Las currutacas modestas.wav" WAVE
TRACK 09 AUDIO
INDEX 01 00:00:00
FILE "10 Granados , 9 tonadillas - El majo discreto.wav" WAVE
TRACK 10 AUDIO
INDEX 01 00:00:00
FILE "11 Granados , 3 Majas dolorosas - La maja dolorosa, nъmero 1.wav" WAVE
TRACK 11 AUDIO
INDEX 01 00:00:00
FILE "12 Granados , 3 Majas dolorosas - La maja dolorosa, nъmero 2.wav" WAVE
TRACK 12 AUDIO
INDEX 01 00:00:00
FILE "13 Granados , 3 Majas dolorosas - La maja dolorosa, nъmero 3.wav" WAVE
TRACK 13 AUDIO
INDEX 01 00:00:00
FILE "14 Granados , 6 Canciones amatorias - Mira que soy niсa.wav" WAVE
TRACK 14 AUDIO
INDEX 01 00:00:00
FILE "15 Granados , 6 Canciones amatorias - Iban al pinar.wav" WAVE
TRACK 15 AUDIO
INDEX 01 00:00:00
FILE "16 Granados , 6 Canciones amatorias - Maсanica era.wav" WAVE
TRACK 16 AUDIO
INDEX 01 00:00:00
FILE "17 Granados , 6 Canciones amatorias - No llorйis, ojuelos.wav" WAVE
TRACK 17 AUDIO
INDEX 01 00:00:00
FILE "18 Granados , 6 Canciones amatorias - Llorad, corazуn.wav" WAVE
TRACK 18 AUDIO
INDEX 01 00:00:00
FILE "19 Granados , 6 Canciones amatorias - Gracia mнa.wav" WAVE
TRACK 19 AUDIO
INDEX 01 00:00:00
FILE "20 Falla , La vida breve - Vican los que rien.wav" WAVE
TRACK 20 AUDIO
INDEX 01 00:00:00
FILE "21 Falla , La vida breve - Allн estб, riyendo.wav" WAVE
TRACK 21 AUDIO
INDEX 01 00:00:00
FILE "22 Turina , Canto a Sevilla - Semana Santa.wav" WAVE
TRACK 22 AUDIO
INDEX 01 00:00:00
FILE "23 Turina , Canto a Sevilla - Las fuentecitas.wav" WAVE
TRACK 23 AUDIO
INDEX 01 00:00:00
FILE "24 Turina , Canto a Sevilla - El fantasma.wav" WAVE
TRACK 24 AUDIO
INDEX 01 00:00:00
FILE "25 Turina , Canto a Sevilla - La Giralda.wav" WAVE
TRACK 25 AUDIO
INDEX 01 00:00:00

Треклист

Disc 1:
Giacomo Puccini:
1. La Rondine (The Swallow): Chi il bel sogno di Doretta
2. Madama Butterfly (Madame Butterfly): Un bel di
3. Madama Butterfly (Madame Butterfly): Tu, tu, piccolo Iddio!
4. Turandot: Tu che di gel sei cinta
5. Gianni Schicchi: O mio babbino caro
6. Suor Angelica: Senza mamma, o bimbo, tu sei morto
7. Tosca: Vissi d'arte
W. A. Mozart:
8. Le nozze di Figaro (The Marriage of Figaro): E Susanna non vien!...Dove sono i bei momenti
9. Die Zauberflöte (The Magic Flute): Ach, ich fühl's, es ist verschwunden
10. Così fan tutte: Temerari!...Come scoglio
11. Gustave Charpentier - Louise: Depuis le jour12.
12. Georges Bizet - Carmen: C'est des contrebandiers...Je dis que rien ne m'épouvante
13. Richard Strauss - Arabella: Er ist der Richtige nicht für mich...Aber der Richtig, wenn's einen gibt für mich
14. Richard Wagner - Tannhäuser: Dich, teure Halle
15. Erich Wolfgang Korngold - Die tote Stadt (The Dead City): Glück, das mir verblieb
16. Antonin Dvorák - Rusalka: Mesícku na nebi hlubokém (O silver moon)
Disc 2:
Enriqué Granados:
1. Goyescas: La maja y el ruiseñor
Tonadillas al estilo antiguo, songs (10) for voice & piano, H. 136:
2. La maja de Goya
3. Amor y odio
4. El tra-la-là y el punteado
5. El majo olvidado
6. El majo timido
7. Callejeo
8. El mirar de la maja
9. Las currutacas modestas
10. El majo discreto
La maja dolorosa:
11. número 1
12. número 2
13. número 3
Canciónes amatorias, songs (7) for voice & piano (also orchestrated by Ferrer), H. 24
14. Mira que soy niña
15. Iban al pinar
16. Mañanica era
17. No lloréis, ojuelos
18. Llorad, corazón
19. Gracia mia
Manuel de Falla - La Vida breve, opera, G. 35/39 (2 versions)
20. Vivan los que rien
22. Allí está, riyendo
Joaquín Turina - Canto a Sevilla, song cycle for voice & orchestra, Op. 37
22. Semana Santa
23. Las fuentecitas
24. El fantasma
25. La Giralda



Показать сообщения:    

Текущее время: 08-Дек 07:10

Часовой пояс: UTC + 3


Вы не можете начинать темы
Вы не можете отвечать на сообщения
Вы не можете редактировать свои сообщения
Вы не можете удалять свои сообщения
Вы не можете голосовать в опросах
Вы не можете прикреплять файлы к сообщениям
Вы не можете скачивать файлы