Лев Дуров. Встреча со зрителями [2009 г., Творческий вечер, TVRip] Концертная студия Останкино


Статистика раздачи [Обновить пиров]
Размер:  698 MB   |    Зарегистрирован:  8 месяцев 14 дней   |    Скачан:  0 раз

Полного источника не было: Никогда

 
   
 
 
 

[Цитировать]

Лев Дуров. Встреча со зрителями Памяти Льва Константиновича Дурова.
(23 декабря 1931 — 20 августа 2015)

Концертная студия Останкино.
Год выпуска: 2009.
Жанр: Творческий вечер.
Продолжительность: 01:04:38.
Исполнитель: народный артист СССР Лев Дуров.
В вечере принимает участие народный артист России Георгий Мартынюк.
В программе отрывок из спектакля "Я не Раппопорт".
Описание:
Встреча с народным артистом СССР Львом Константиновичем Дуровым.
Он рассказывает о своем творчестве, о своей жизни, отвечает на вопросы зрителей.

Лев Дуров

Лев Дуров родился 23 декабря 1931 года в Москве. Происходит из знаменитой династии русских цирковых артистов - дрессировщиков и клоунов.
Он поступил в Школу-студию МХАТ, когда набирался курс Георгия Авдеевича Герасимова и Сергея Капитоновича Блинникова. Преподавали на курсе старые мхатовцы: Топорков, Масальский, Карев, Раевский и, конечно, сам Блинников. Дуров был одним из его любимых учеников.
В 1954 году после окончания Школы-студии МХАТ директор Центрального детского театра Шах-Азизов пригласил Дурова работать в свою труппу. Он согласился и в сентябре пришeл на первый в своей жизни сбор труппы, где встретился с режиссером Анатолием Эфросом, с которым потом не расставался почти 27 лет. В Центральном детском театре он проработал около 10 лет. Когда Эфрос перешeл в Театр имени Ленинского комсомола, он взял с собой нескольких актeров, в том числе и Дурова. А когда Эфросу предложили перейти в театр на Малой Бронной, то Дуров ушeл вместе с ним. С 1967 года Лев Дуров работал в Московском драматическом театре на Малой Бронной.
После окончания Высших режиссeрских курсов Лев Дуров стал режиссeром-постановщиком.
В кино Лев Дуров начал сниматься в 1954 году и сыграл более 160 ролей.
В 1996 году как художественный руководитель он выпустил курс студентов в Школе-студии МХАТ.
В 1999 году вышла книга Л. К. Дурова "Грешные записки".
В 2008 году вышли две книги: "Байки из Закулисья" и "Байки на бис".
Умер 20 августа 2015 года.
Дополнительная информация:
Страна: Россия .
Релиз

Качество видео:...TVRip
Формат:.................AVI
Видео:..704x528 (1.33:1), 25 fps, XviD MPEG-4 ~1372 kbps avg, 0.15 bit/pixel
Аудио:..44.100 kHz, MPEG Layer 3, 2 ch, ~128.00 kbps avg

Отчет MI

Общее
Полное имя : Lev.Durov.vstrecha.so.zritelyami.2009.XviD.TVRip.fenixclub.avi
Format : AVI
Format/Info : Audio Video Interleave
File size : 698 MiB
Duration : 1h 4mn
Overall bit rate : 1 510 Kbps
Writing library : VirtualDub build 32842/release
Video
ID : 0
Format : MPEG-4 Visual
Format profile : Advanced Simple@L5
Format settings, BVOP : 2
Format settings, QPel : No
Format settings, GMC : No warppoints
Format settings, Matrix : Default (H.263)
Codec ID : XVID
Codec ID/Hint : XviD
Duration : 1h 4mn
Bit rate : 1 373 Kbps
Width : 704 pixels
Height : 528 pixels
Display aspect ratio : 4:3
Frame rate : 25.000 fps
Color space : YUV
Chroma subsampling : 4:2:0
Bit depth : 8 bits
Scan type : Progressive
Compression mode : Lossy
Bits/(Pixel*Frame) : 0.148
Stream size : 635 MiB (91%)
Writing library : XviD 73
Audio
ID : 1
Format : MPEG Audio
Format version : Version 1
Format profile : Layer 3
Mode : Joint stereo
Mode extension : MS Stereo
Codec ID : 55
Codec ID/Hint : MP3
Duration : 1h 4mn
Bit rate mode : Constant
Bit rate : 128 Kbps
Channel(s) : 2 channels
Sampling rate : 44.1 KHz
Compression mode : Lossy
Stream size : 59.2 MiB (8%)
Alignment : Split accross interleaves
Interleave, duration : 40 ms (1.00 video frame)
Interleave, preload duratio : 500 ms
Writing library : LAME3.98.

Скриншоты

Альтернативный хост

[teatrix.ru].t22114.torrent 
Торрент: Зарегистрирован [ 2016-03-20 12:44 ] · 4184A9A8607454BEFFF59D9E73323FD9604C4089

Скачать .torrent

Скачать

14 KB

Статус: проверено
Скачан: 0 раз
Размер: 698 MB
terms.php



Быстрый ответ

Имя:

      
Для отправки сообщений необходимо включить JavaScript
Показать сообщения:    

Текущее время: 04-Дек 00:48

Часовой пояс: UTC + 3


Вы можете начинать темы
Вы можете отвечать на сообщения
Вы не можете редактировать свои сообщения
Вы не можете удалять свои сообщения
Вы не можете голосовать в опросах
Вы не можете прикреплять файлы к сообщениям
Вы можете скачивать файлы