(Sacred) Giuseppe Verdi - Messa da Requiem / Джузеппе Верди - Реквием (Michel Plasson; Orchestre du Capitole de Toulouse; Julia Varady, Felicity Palmer, Keith Olsen, Roberto Scandiuzzi), FLAC (image+.cue), lossless


Статистика раздачи [Обновить пиров]
Размер:  361 MB   |    Зарегистрирован:  8 месяцев 18 дней   |    Скачан:  1 раз

Полного источника не было: 2 месяца 27 дней

 
   
 
 
 

[Цитировать]

Giuseppe Verdi - Messa da Requiem / Джузеппе Верди - Реквием (Michel Plasson; Orchestre du Capitole de Toulouse; Julia Varady, Felicity Palmer, Keith Olsen, Roberto Scandiuzzi)
Жанр: Sacred
Страна-производитель диска: Франция
Год издания диска: 1997
Издатель (лейбл): EMI Classics
Дата записи: 1996
Аудиокодек: FLAC
Тип рипа: image+.cue
Битрейт аудио: lossless
Продолжительность: 67:31
Источник: релизер (canariasesmusica)
Исполнители:
Julia Varady, soprano,
Felicity Palmer, mezzo-soprano,
Keith Olsen, tenor,
Roberto Scandiuzzi, bass.
Michel Plasson, Conductor,
Orchestre du Capitole de Toulouse,
Orféon Donostiarra.

Лог создания рипа

X Lossless Decoder version 20140504 (147.0)
XLD extraction logfile from 2014-07-16 16:37:55 +0100
Giuseppe Verdi / Messa da Requiem (Orchestre du Capitole de Toulouse feat. conductor Micael Plasson)
Used drive : MATSHITA DVD-R UJ-8A8 (revision HB14)
Media type : Pressed CD
Ripper mode : XLD Secure Ripper
Disable audio cache : OK for the drive with a cache less than 1375KiB
Make use of C2 pointers : NO
Read offset correction : 102
Max retry count : 20
Gap status : Analyzed, Appended
TOC of the extracted CD
Track | Start | Length | Start sector | End sector
---------------------------------------------------------
1 | 00:00:00 | 05:26:50 | 0 | 24499
2 | 05:26:50 | 03:31:65 | 24500 | 40389
3 | 08:58:40 | 02:14:47 | 40390 | 50486
4 | 11:13:12 | 03:09:05 | 50487 | 64666
5 | 14:22:17 | 04:42:30 | 64667 | 85846
6 | 19:04:47 | 03:36:38 | 85847 | 102084
7 | 22:41:10 | 03:38:10 | 102085 | 118444
8 | 26:19:20 | 03:45:55 | 118445 | 135374
9 | 30:05:00 | 03:21:17 | 135375 | 150466
10 | 33:26:17 | 05:13:33 | 150467 | 173974
11 | 38:39:50 | 05:34:07 | 173975 | 199031
12 | 44:13:57 | 09:23:48 | 199032 | 241304
13 | 53:37:30 | 02:46:12 | 241305 | 253766
14 | 56:23:42 | 04:43:65 | 253767 | 275056
15 | 61:07:32 | 06:22:13 | 275057 | 303719
AccurateRip Summary (DiscID: 0021dc6f-0186363b-d20fd10f)
Track 01 : OK (v1+v2, confidence 5/5)
Track 02 : OK (v1+v2, confidence 5/5)
Track 03 : OK (v1+v2, confidence 5/5)
Track 04 : OK (v1+v2, confidence 5/5)
Track 05 : OK (v1+v2, confidence 5/5)
Track 06 : OK (v1+v2, confidence 5/5)
Track 07 : OK (v1+v2, confidence 5/5)
Track 08 : OK (v1+v2, confidence 5/5)
Track 09 : OK (v1+v2, confidence 5/5)
Track 10 : OK (v1+v2, confidence 5/5)
Track 11 : OK (v1+v2, confidence 5/5)
Track 12 : OK (v1+v2, confidence 5/5)
Track 13 : OK (v1+v2, confidence 5/5)
Track 14 : OK (v1+v2, confidence 5/5)
Track 15 : OK (v1+v2, confidence 5/5)
->All tracks accurately ripped.
All Tracks
Filename : /Users/juan/Music/Messa da Requiem (Orchestre du Capitole de Toulouse feat. conductor Micael Plasson).flac
CRC32 hash : 3E569DB5
CRC32 hash (skip zero) : 8C6222BE
Statistics
Read error : 0
Jitter error (maybe fixed) : 0
Retry sector count : 0
Damaged sector count : 0
Track 01
Pre-gap length : 00:02:00
CRC32 hash : 9E76A900
CRC32 hash (skip zero) : 09A9B7D8
AccurateRip v1 signature : B7F853B4
AccurateRip v2 signature : 24F110A5
->Accurately ripped (v1+v2, confidence 2+3/5)
Statistics
Read error : 0
Jitter error (maybe fixed) : 0
Retry sector count : 0
Damaged sector count : 0
Track 02
CRC32 hash : 6FBDEEED
CRC32 hash (skip zero) : 899BFB8F
AccurateRip v1 signature : DB8E8784
AccurateRip v2 signature : CC5393D6
->Accurately ripped (v1+v2, confidence 2+3/5)
Statistics
Read error : 0
Jitter error (maybe fixed) : 0
Retry sector count : 0
Damaged sector count : 0
Track 03
Pre-gap length : 00:02:53
CRC32 hash : 19D02397
CRC32 hash (skip zero) : BD01FAD2
AccurateRip v1 signature : 3FEE2601
AccurateRip v2 signature : 433F0CBD
->Accurately ripped (v1+v2, confidence 2+3/5)
Statistics
Read error : 0
Jitter error (maybe fixed) : 0
Retry sector count : 0
Damaged sector count : 0
Track 04
CRC32 hash : 2368356D
CRC32 hash (skip zero) : 0FC990F5
AccurateRip v1 signature : 14AABC10
AccurateRip v2 signature : 1BB29871
->Accurately ripped (v1+v2, confidence 2+3/5)
Statistics
Read error : 0
Jitter error (maybe fixed) : 0
Retry sector count : 0
Damaged sector count : 0
Track 05
CRC32 hash : 6E6104EF
CRC32 hash (skip zero) : 46E74832
AccurateRip v1 signature : D6779E9B
AccurateRip v2 signature : C184EF10
->Accurately ripped (v1+v2, confidence 2+3/5)
Statistics
Read error : 0
Jitter error (maybe fixed) : 0
Retry sector count : 0
Damaged sector count : 0
Track 06
CRC32 hash : 98421C58
CRC32 hash (skip zero) : 05650D89
AccurateRip v1 signature : 6E2B6DB5
AccurateRip v2 signature : C6D2F2FA
->Accurately ripped (v1+v2, confidence 2+3/5)
Statistics
Read error : 0
Jitter error (maybe fixed) : 0
Retry sector count : 0
Damaged sector count : 0
Track 07
CRC32 hash : E722B676
CRC32 hash (skip zero) : 70158C77
AccurateRip v1 signature : 57BEDD61
AccurateRip v2 signature : 6842B9AF
->Accurately ripped (v1+v2, confidence 2+3/5)
Statistics
Read error : 0
Jitter error (maybe fixed) : 0
Retry sector count : 0
Damaged sector count : 0
Track 08
CRC32 hash : 3E862AB9
CRC32 hash (skip zero) : 181D4811
AccurateRip v1 signature : E3C41EA3
AccurateRip v2 signature : DC29D4A3
->Accurately ripped (v1+v2, confidence 2+3/5)
Statistics
Read error : 0
Jitter error (maybe fixed) : 0
Retry sector count : 0
Damaged sector count : 0
Track 09
CRC32 hash : 28C9B38B
CRC32 hash (skip zero) : F433597B
AccurateRip v1 signature : 634E67AD
AccurateRip v2 signature : 3D829FE5
->Accurately ripped (v1+v2, confidence 2+3/5)
Statistics
Read error : 0
Jitter error (maybe fixed) : 0
Retry sector count : 0
Damaged sector count : 0
Track 10
CRC32 hash : F6DA3402
CRC32 hash (skip zero) : 232AE620
AccurateRip v1 signature : F7AA4BDC
AccurateRip v2 signature : 92567E92
->Accurately ripped (v1+v2, confidence 2+3/5)
Statistics
Read error : 0
Jitter error (maybe fixed) : 0
Retry sector count : 0
Damaged sector count : 0
Track 11
CRC32 hash : 7B03388B
CRC32 hash (skip zero) : 629D97DD
AccurateRip v1 signature : 06B38391
AccurateRip v2 signature : 1C61658F
->Accurately ripped (v1+v2, confidence 2+3/5)
Statistics
Read error : 0
Jitter error (maybe fixed) : 0
Retry sector count : 0
Damaged sector count : 0
Track 12
Pre-gap length : 00:09:23
CRC32 hash : 66FC85E1
CRC32 hash (skip zero) : 18CF9003
AccurateRip v1 signature : 7305658A
AccurateRip v2 signature : 0D8F63DC
->Accurately ripped (v1+v2, confidence 2+3/5)
Statistics
Read error : 0
Jitter error (maybe fixed) : 0
Retry sector count : 0
Damaged sector count : 0
Track 13
Pre-gap length : 00:04:60
CRC32 hash : 598B6F97
CRC32 hash (skip zero) : E76E2A9B
AccurateRip v1 signature : A4310DA1
AccurateRip v2 signature : DAE987C3
->Accurately ripped (v1+v2, confidence 2+3/5)
Statistics
Read error : 0
Jitter error (maybe fixed) : 0
Retry sector count : 0
Damaged sector count : 0
Track 14
Pre-gap length : 00:01:12
CRC32 hash : BC9339AD
CRC32 hash (skip zero) : D4CD0810
AccurateRip v1 signature : A3E519FD
AccurateRip v2 signature : FEE132D4
->Accurately ripped (v1+v2, confidence 2+3/5)
Statistics
Read error : 0
Jitter error (maybe fixed) : 0
Retry sector count : 0
Damaged sector count : 0
Track 15
Pre-gap length : 00:03:02
CRC32 hash : CB6C6949
CRC32 hash (skip zero) : 5BED40B2
AccurateRip v1 signature : 06D51C09
AccurateRip v2 signature : E01FEAEE
->Accurately ripped (v1+v2, confidence 2+3/5)
Statistics
Read error : 0
Jitter error (maybe fixed) : 0
Retry sector count : 0
Damaged sector count : 0
No errors occurred
End of status report
X Lossless Decoder version 20140504 (147.0)
XLD extraction logfile from 2014-07-16 16:55:45 +0100
Verdi / Messa Da Requiem / Michel Plasson CD 2
Used drive : MATSHITA DVD-R UJ-8A8 (revision HB14)
Media type : Pressed CD
Ripper mode : XLD Secure Ripper
Disable audio cache : OK for the drive with a cache less than 1375KiB
Make use of C2 pointers : NO
Read offset correction : 102
Max retry count : 20
Gap status : Analyzed, Appended
TOC of the extracted CD
Track | Start | Length | Start sector | End sector
---------------------------------------------------------
1 | 00:00:00 | 13:11:40 | 0 | 59364
AccurateRip Summary (DiscID: 0000e7e5-0001cfcb-02031701)
Track 01 : OK (v1+v2, confidence 5/5)
->All tracks accurately ripped.
All Tracks
Filename : /Users/juan/Music/Michel Plasson CD 2.flac
CRC32 hash : BB4FF3A4
CRC32 hash (skip zero) : 81B3DB07
Statistics
Read error : 0
Jitter error (maybe fixed) : 0
Retry sector count : 0
Damaged sector count : 0
Track 01
Pre-gap length : 00:02:00
CRC32 hash : BB4FF3A4
CRC32 hash (skip zero) : 81B3DB07
AccurateRip v1 signature : C55B9996
AccurateRip v2 signature : 7E598224
->Accurately ripped (v1+v2, confidence 2+3/5)
Statistics
Read error : 0
Jitter error (maybe fixed) : 0
Retry sector count : 0
Damaged sector count : 0
No errors occurred
End of status report

Содержание индексной карты (.CUE)

TITLE "Messa da Requiem (Orchestre du Capitole de Toulouse feat. conductor Micael Plasson)"
PERFORMER "Giuseppe Verdi"
CATALOG 0072435564602
REM DATE "1997"
REM DISCID D20FD10F
FILE "Messa da Requiem (Orchestre du Capitole de Toulouse feat. conductor Micael Plasson).flac" WAVE
TRACK 01 AUDIO
TITLE "Requiem e Kyrie: Requiem"
PERFORMER "Giuseppe Verdi"
ISRC FRZ119603260
INDEX 01 00:00:00
TRACK 02 AUDIO
TITLE "Requiem e Kyrie: Kyrie"
PERFORMER "Giuseppe Verdi"
ISRC FRZ119603270
INDEX 01 05:26:50
TRACK 03 AUDIO
TITLE "Sequence (Dies irae): Dies irae"
PERFORMER "Giuseppe Verdi"
ISRC FRZ119603280
INDEX 00 08:55:62
INDEX 01 08:58:40
TRACK 04 AUDIO
TITLE "Sequence (Dies irae): Tuba mirum"
PERFORMER "Giuseppe Verdi"
ISRC FRZ119603290
INDEX 01 11:13:12
TRACK 05 AUDIO
TITLE "Sequence (Dies irae): Liber Scriptus"
PERFORMER "Giuseppe Verdi"
ISRC FRZ119603300
INDEX 01 14:22:17
TRACK 06 AUDIO
TITLE "Sequence (Dies irae): Quid sum miser"
PERFORMER "Giuseppe Verdi"
ISRC FRZ119603310
INDEX 01 19:04:47
TRACK 07 AUDIO
TITLE "Sequence (Dies irae): Rex tremendae"
PERFORMER "Giuseppe Verdi"
ISRC FRZ119603320
INDEX 01 22:41:10
TRACK 08 AUDIO
TITLE "Sequence (Dies irae): Recordare"
PERFORMER "Giuseppe Verdi"
ISRC FRZ119603330
INDEX 01 26:19:20
TRACK 09 AUDIO
TITLE "Sequence (Dies irae): Ingemisco"
PERFORMER "Giuseppe Verdi"
ISRC FRZ119603340
INDEX 01 30:05:00
TRACK 10 AUDIO
TITLE "Sequence (Dies irae): Confutatis"
PERFORMER "Giuseppe Verdi"
ISRC FRZ119603350
INDEX 01 33:26:17
TRACK 11 AUDIO
TITLE "Sequence (Dies irae): Lacrymosa"
PERFORMER "Giuseppe Verdi"
ISRC FRZ119603360
INDEX 01 38:39:50
TRACK 12 AUDIO
TITLE "Offertorio: Dimine Jesu"
PERFORMER "Giuseppe Verdi"
ISRC FRZ119603370
INDEX 00 44:04:34
INDEX 01 44:13:57
TRACK 13 AUDIO
TITLE "Offertorio: Sanctus"
PERFORMER "Giuseppe Verdi"
ISRC FRZ119603380
INDEX 00 53:32:45
INDEX 01 53:37:30
TRACK 14 AUDIO
TITLE "Offertorio: Agnus Dei"
PERFORMER "Giuseppe Verdi"
ISRC FRZ119603390
INDEX 00 56:22:30
INDEX 01 56:23:42
TRACK 15 AUDIO
TITLE "Offertorio: Lux aeterna"
PERFORMER "Giuseppe Verdi"
ISRC FRZ119603400
INDEX 00 61:04:30
INDEX 01 61:07:32
TITLE "Michel Plasson CD 2"
PERFORMER "Verdi / Messa Da Requiem"
CATALOG 0072434716492
REM GENRE "Other"
REM DISCID 02031701
FILE "Michel Plasson CD 2.flac" WAVE
TRACK 01 AUDIO
TITLE "Libera Me"
ISRC FRZ119603410
INDEX 01 00:00:00

Треклист

Disc 1:
1. Requiem
2. Kyrie
3. Dies irae
4. Tuba mirum
5. Liber Scriptus
6. Quid sum miser
7. Rex tremendae
8. Recordare
9. Ingemisco
10. Confutatis
11. SLacrymosa
12. Dimine Jesu
13. Sanctus
14. Agnus Dei
15. Lux aeterna
Disc 2:
1. Libera me
[teatrix.ru].t22115.torrent 
Торрент: Зарегистрирован [ 2016-03-20 12:44 ] · B1CF4FA2BE99AB048761E2EAFC106CDB38B088C2

Скачать .torrent

Скачать

15 KB

Статус: проверено
Скачан: 1 раз
Размер: 361 MB
terms.php



Быстрый ответ

Имя:

      
Для отправки сообщений необходимо включить JavaScript
Показать сообщения:    

Текущее время: 07-Дек 13:42

Часовой пояс: UTC + 3


Вы можете начинать темы
Вы можете отвечать на сообщения
Вы не можете редактировать свои сообщения
Вы не можете удалять свои сообщения
Вы не можете голосовать в опросах
Вы не можете прикреплять файлы к сообщениям
Вы можете скачивать файлы