Прелестное дитя / Прелестная малышка / Прелестный Ребёнок / Pretty baby (Луи Маль / Louis Malle) [1978, США, драма, DVDRip] MVO (НТВ+) + MVO (5 канал) + Original Eng


Статистика раздачи [Обновить пиров]
Размер:  1.46 GB   |    Зарегистрирован:  8 месяцев 15 дней   |    Скачан:  0 раз

Полного источника не было: Никогда

 
   
 
 
 

[Цитировать]

Прелестное дитя / Пpелестная малышка / Прелестный Ребёнок / Pretty baby
Страна: США
Жанр: драма
Год выпуска: 1978
Продолжительность: 01:49:24
Перевод: Профессиональный (многоголосый закадровый) НТВ+
Перевод 2: Профессиональный (многоголосый закадровый) 5 канал
Cубтитры: нет
Оригинальная аудиодорожка: английский
Режиссер: Луи Маль / Louis Malle
В ролях: Брук Шилдс (Brooke Shields), Антонио Фаргас (Antonio Fargas), Сьюзэн Сэрэндон (Susan Sarandon), Барбара Стил (Barbara Steele), Мэттью Энтон (Matthew Anton), Фрэнсис Фэй (Frances Faye), Мэй Мерсер (Mae Mercer), Геррит Грэм (Gerrit Graham), Дайэна Скаруид (Diana Scarwid), Кит Кэррадайн (Keith Carradine)
Описание: Первая американская картина режиссера Луи Маля о романе взрослого фотографа и 12-летней проститутки поставлена по книге Эла Роуза "Сторивиль, Новый Орлеан: Быть живым свидетелем злачного района красных фонарей" ("Storyville, New Orleans: Being an Authentic Account of the Notorious Redlight District").
Вайолет (Шилдс) живет со своей матерью Хэтти (Сэрэндон), проституткой, в Новом Орлеане (На дворе 1917 год). Она кажется трогательно невинной даже после того, как в возрасте 12 лет ее девственность продана за большую по тем временам сумму в 400 долларов. Уйдя из борделя, она некоторое время живет с фотографом И.Дж.Беллоком (реальный персонаж). В конце концов, Вайолет воссоединяется с матерью, которая тоже бежала из борделя, чтобы вести более "респектабельную" жизнь.
Сила чрезвычайно красиво снятого, медлительного фильма заключается в одновременной презентации двух точек зрения. Первая - точка зрения Вайолет, чья чарующая и невинная любовь к жизни - такой, какая она есть - настолько убедительна, что зритель понимает: вход в "цивилизованное" общество станет ее истинным падением. И второй - точки зрения фотографа Беллока, для которого и девочка, и ее окружение эротичны и художественны. Оператор Нюквист проделал изумительную работу.
Сэмпл: http://multi-up.com/1064110
Качество видео: DVDRip
Формат видео: AVI
Видео: MPEG4, XviD, 704x384 (16:9), 23.976 fps, 1 557 Kbps (0.240 bit/pixel)
Аудио: AC-3, 48.0 KHz, 1 ch, 112 Kbps, CBR - НТВ+
Аудио 2: AC-3, 48.0 KHz, 1 ch, 112 Kbps, CBR - 5 канал
Аудио 3: AC-3, 48.0 KHz, 1 ch, 112 Kbps, CBR - английский

MediaInfo

Общее
Полное имя : K:\Прелестное дитя.avi
Формат : AVI
Формат/Информация : Audio Video Interleave
Размер файла : 1,46 Гбайт
Продолжительность : 1 ч. 49 м.
Общий поток : 1912 Кбит/сек
Название фильма : Прелестное дитя / Пpелестная малышка / Прелестный Ребёнок / Pretty baby (1978)
Программа кодирования : VirtualDubMod 1.5.10.2 (build 2540/release)
Библиотека кодирования : VirtualDubMod build 2540/release
Авторское право : miha2154
Видео
Идентификатор : 0
Формат : MPEG-4 Visual
Профиль формата : Advanced Simple@L5
Параметр BVOP формата : 1
Параметр QPel формата : Нет
Параметр GMC формата : Без точки перехода
Параметр матрицы формата : Выборочная
Идентификатор кодека : XVID
Идентификатор кодека/Подсказка : XviD
Продолжительность : 1 ч. 49 м.
Битрейт : 1557 Кбит/сек
Ширина : 704 пикселя
Высота : 384 пикселя
Соотношение сторон : 1,85:1
Частота кадров : 23,976 кадра/сек
Цветовое пространство : YUV
Субдискретизация насыщенности : 4:2:0
Битовая глубина : 8 бит
Тип развёртки : Прогрессивная
Метод сжатия : С потерями
Бит/(Пиксели*Кадры) : 0.240
Размер потока : 1,19 Гбайт (81%)
Библиотека кодирования : XviD 65
Аудио #1
Идентификатор : 1
Формат : AC-3
Формат/Информация : Audio Coding 3
Расширение режима : CM (complete main)
Параметр Endianness формата : Big
Идентификатор кодека : 2000
Продолжительность : 1 ч. 49 м.
Вид битрейта : Постоянный
Битрейт : 112 Кбит/сек
Каналы : 1 канал
Расположение каналов : Front: C
Частота : 48,0 КГц
Метод сжатия : С потерями
Размер потока : 87,6 Мбайт (6%)
Выравнивание : Разделение по промежуткам
Продолжительность промежутка : 42 мс. (1,00 видеокадр)
Время предзагрузки промежутка : 500 мс.
Аудио #2
Идентификатор : 2
Формат : AC-3
Формат/Информация : Audio Coding 3
Расширение режима : CM (complete main)
Параметр Endianness формата : Big
Идентификатор кодека : 2000
Продолжительность : 1 ч. 49 м.
Вид битрейта : Постоянный
Битрейт : 112 Кбит/сек
Каналы : 1 канал
Расположение каналов : Front: C
Частота : 48,0 КГц
Метод сжатия : С потерями
Размер потока : 87,6 Мбайт (6%)
Выравнивание : Разделение по промежуткам
Продолжительность промежутка : 42 мс. (1,00 видеокадр)
Время предзагрузки промежутка : 500 мс.
Заголовок : Профессиональный (многоголосый закадровый) 5 канал
Аудио #3
Идентификатор : 3
Формат : AC-3
Формат/Информация : Audio Coding 3
Расширение режима : CM (complete main)
Параметр Endianness формата : Big
Идентификатор кодека : 2000
Продолжительность : 1 ч. 49 м.
Вид битрейта : Постоянный
Битрейт : 112 Кбит/сек
Каналы : 1 канал
Расположение каналов : Front: C
Частота : 48,0 КГц
Метод сжатия : С потерями
Размер потока : 87,6 Мбайт (6%)
Выравнивание : Разделение по промежуткам
Продолжительность промежутка : 42 мс. (1,00 видеокадр)
Время предзагрузки промежутка : 500 мс.
Заголовок : Английский

Скриншоты


[teatrix.ru].t22116.torrent 
Торрент: Зарегистрирован [ 2016-03-20 12:43 ] · DC5B971A98146762F01B12A76139C0416CD0910D

Скачать .torrent

Скачать

15 KB

Статус: проверено
Скачан: 0 раз
Размер: 1.46 GB
terms.php



Быстрый ответ

Имя:

      
Для отправки сообщений необходимо включить JavaScript
Показать сообщения:    

Текущее время: 05-Дек 05:25

Часовой пояс: UTC + 3


Вы можете начинать темы
Вы можете отвечать на сообщения
Вы не можете редактировать свои сообщения
Вы не можете удалять свои сообщения
Вы не можете голосовать в опросах
Вы не можете прикреплять файлы к сообщениям
Вы можете скачивать файлы