(Opera) Giuseppe Verdi - Macbeth / Джузеппе Верди - Макбет (Erich Leinsdorf; Metropolitan Opera Orchestra; Leonard Warren, Leonie Rysanek, Jerome Hines, Carlo Bergonzi), 1959 - Studio recording / FLAC (image+.cue), lossless


 

[Цитировать]

Giuseppe Verdi - Macbeth / Джузеппе Верди - Макбет (Erich Leinsdorf; Metropolitan Opera Orchestra; Leonard Warren, Leonie Rysanek, Jerome Hines, Carlo Bergonzi)
Жанр: Opera
Страна-производитель диска: CША
Год издания диска: 1999
Издатель (лейбл): RCA
Дата записи: 1959
Аудиокодек: FLAC
Тип рипа: image+.cue
Битрейт аудио: lossless
Продолжительность: 130:03
Источник: релизер (canariasesmusica)
Исполнители:
Macbeth - Leonard Warren,
Lady Macbeth - Leonie Rysanek,
Banco - Jerome Hines,
Macduff - Carlo Bergonzi,
Malcolm - William Olvis,
Dama - Carlotta Ordassy,
Medico - Gerhard Pechner.
Conductor - Erich Leinsdorf,
Orchestra and Chorus of the Metropolitan Opera.
Recorded on February, 1959 at Manhattan Center, New York.

Лог создания рипаЛог создания рипа CD 1

X Lossless Decoder version 20140504 (147.0)
XLD extraction logfile from 2014-07-02 22:34:24 +0100
Verdi / Macbeth
Used drive : MATSHITA DVD-R UJ-8A8 (revision HB14)
Media type : Pressed CD
Ripper mode : XLD Secure Ripper
Disable audio cache : OK for the drive with a cache less than 1375KiB
Make use of C2 pointers : NO
Read offset correction : 102
Max retry count : 20
Gap status : Analyzed, Appended
TOC of the extracted CD
Track | Start | Length | Start sector | End sector
---------------------------------------------------------
1 | 00:00:00 | 04:20:55 | 0 | 19554
2 | 04:20:55 | 02:39:45 | 19555 | 31524
3 | 07:00:25 | 03:56:00 | 31525 | 49224
4 | 10:56:25 | 03:27:28 | 49225 | 64777
5 | 14:23:53 | 02:38:27 | 64778 | 76654
6 | 17:02:05 | 01:33:70 | 76655 | 83699
7 | 18:36:00 | 05:32:63 | 83700 | 108662
8 | 24:08:63 | 03:45:35 | 108663 | 125572
9 | 27:54:23 | 04:32:30 | 125573 | 146002
10 | 32:26:53 | 05:43:65 | 146003 | 171792
11 | 38:10:43 | 02:36:32 | 171793 | 183524
12 | 40:47:00 | 04:45:15 | 183525 | 204914
13 | 45:32:15 | 02:48:58 | 204915 | 217572
14 | 48:20:73 | 03:35:45 | 217573 | 233742
15 | 51:56:43 | 03:14:37 | 233743 | 248329
16 | 55:11:05 | 04:37:15 | 248330 | 269119
17 | 59:48:20 | 02:00:03 | 269120 | 278122
18 | 61:48:23 | 03:50:42 | 278123 | 295414
List of alternate offset correction values
# | Absolute | Relative | Confidence
------------------------------------------
1 | -509 | -611 | 2
AccurateRip Summary (DiscID: 002ad996-023e44e5-f20f6212)
Track 01 : OK (v2, confidence 2/2, with different offset)
Track 02 : OK (v2, confidence 2/2, with different offset)
Track 03 : OK (v2, confidence 2/2, with different offset)
Track 04 : OK (v2, confidence 2/2, with different offset)
Track 05 : OK (v2, confidence 2/2, with different offset)
Track 06 : OK (v2, confidence 2/2, with different offset)
Track 07 : OK (v2, confidence 2/2, with different offset)
Track 08 : OK (v2, confidence 2/2, with different offset)
Track 09 : OK (v2, confidence 2/2, with different offset)
Track 10 : OK (v2, confidence 2/2, with different offset)
Track 11 : OK (v2, confidence 2/2, with different offset)
Track 12 : OK (v2, confidence 2/2, with different offset)
Track 13 : OK (v2, confidence 2/2, with different offset)
Track 14 : OK (v2, confidence 2/2, with different offset)
Track 15 : OK (v2, confidence 2/2, with different offset)
Track 16 : OK (v2, confidence 2/2, with different offset)
Track 17 : OK (v2, confidence 2/2, with different offset)
Track 18 : OK (v2, confidence 2/2, with different offset)
->All tracks accurately ripped.
All Tracks
Filename : /Users/juan/Music/Macbeth.flac
CRC32 hash : C5EA209A
CRC32 hash (skip zero) : 28958971
Statistics
Read error : 0
Jitter error (maybe fixed) : 0
Retry sector count : 0
Damaged sector count : 0
Track 01
Pre-gap length : 00:02:00
CRC32 hash : C153FE71
CRC32 hash (skip zero) : 9D68CD1C
AccurateRip v1 signature : A321384B
AccurateRip v2 signature : F6052261 (3FCA46CB w/correction)
->Accurately ripped with different offset (v2, confidence 2/2, offset -611)
Statistics
Read error : 0
Jitter error (maybe fixed) : 0
Retry sector count : 0
Damaged sector count : 0
Track 02
CRC32 hash : F4BE6ED1
CRC32 hash (skip zero) : 233457B2
AccurateRip v1 signature : 9C375194
AccurateRip v2 signature : 0519D0D0 (49EC01DF w/correction)
->Accurately ripped with different offset (v2, confidence 2/2, offset -611)
Statistics
Read error : 0
Jitter error (maybe fixed) : 0
Retry sector count : 0
Damaged sector count : 0
Track 03
CRC32 hash : A69A4B7C
CRC32 hash (skip zero) : 1BD3C351
AccurateRip v1 signature : DA84B0B7
AccurateRip v2 signature : 78E841A7 (02AF2874 w/correction)
->Accurately ripped with different offset (v2, confidence 2/2, offset -611)
Statistics
Read error : 0
Jitter error (maybe fixed) : 0
Retry sector count : 0
Damaged sector count : 0
Track 04
CRC32 hash : F4D5341D
CRC32 hash (skip zero) : 83A5B617
AccurateRip v1 signature : 292CB2B1
AccurateRip v2 signature : B59FE874 (FAEBB79E w/correction)
->Accurately ripped with different offset (v2, confidence 2/2, offset -611)
Statistics
Read error : 0
Jitter error (maybe fixed) : 0
Retry sector count : 0
Damaged sector count : 0
Track 05
CRC32 hash : B647442E
CRC32 hash (skip zero) : CE5CE12A
AccurateRip v1 signature : 1AF0E70E
AccurateRip v2 signature : 069D0EC4 (CD915E96 w/correction)
->Accurately ripped with different offset (v2, confidence 2/2, offset -611)
Statistics
Read error : 0
Jitter error (maybe fixed) : 0
Retry sector count : 0
Damaged sector count : 0
Track 06
CRC32 hash : B9BE7527
CRC32 hash (skip zero) : EDA4BE40
AccurateRip v1 signature : CAD249FA
AccurateRip v2 signature : A6C15976 (24BF3C2C w/correction)
->Accurately ripped with different offset (v2, confidence 2/2, offset -611)
Statistics
Read error : 0
Jitter error (maybe fixed) : 0
Retry sector count : 0
Damaged sector count : 0
Track 07
CRC32 hash : 88967EB1
CRC32 hash (skip zero) : 686B2E12
AccurateRip v1 signature : 2E6DBC59
AccurateRip v2 signature : 84D49A41 (AFD3355F w/correction)
->Accurately ripped with different offset (v2, confidence 2/2, offset -611)
Statistics
Read error : 0
Jitter error (maybe fixed) : 0
Retry sector count : 0
Damaged sector count : 0
Track 08
CRC32 hash : AB499544
CRC32 hash (skip zero) : A976531F
AccurateRip v1 signature : 565C5950
AccurateRip v2 signature : 979629CE (2DF7EC55 w/correction)
->Accurately ripped with different offset (v2, confidence 2/2, offset -611)
Statistics
Read error : 0
Jitter error (maybe fixed) : 0
Retry sector count : 0
Damaged sector count : 0
Track 09
CRC32 hash : DE9026E6
CRC32 hash (skip zero) : 4B059F94
AccurateRip v1 signature : CFF37B6C
AccurateRip v2 signature : D70F85B8 (BDA4A790 w/correction)
->Accurately ripped with different offset (v2, confidence 2/2, offset -611)
Statistics
Read error : 0
Jitter error (maybe fixed) : 0
Retry sector count : 0
Damaged sector count : 0
Track 10
CRC32 hash : C843E52C
CRC32 hash (skip zero) : 3E0B4F30
AccurateRip v1 signature : 91BA07C0
AccurateRip v2 signature : 321A7C69 (11616B53 w/correction)
->Accurately ripped with different offset (v2, confidence 2/2, offset -611)
Statistics
Read error : 0
Jitter error (maybe fixed) : 0
Retry sector count : 0
Damaged sector count : 0
Track 11
CRC32 hash : 4BC86839
CRC32 hash (skip zero) : CA2F8C37
AccurateRip v1 signature : 57EC0BDF
AccurateRip v2 signature : 499C19AB (6BEA3F4E w/correction)
->Accurately ripped with different offset (v2, confidence 2/2, offset -611)
Statistics
Read error : 0
Jitter error (maybe fixed) : 0
Retry sector count : 0
Damaged sector count : 0
Track 12
CRC32 hash : E06C30B7
CRC32 hash (skip zero) : 82A02A50
AccurateRip v1 signature : F354B72B
AccurateRip v2 signature : 8284C571 (45AD2FE0 w/correction)
->Accurately ripped with different offset (v2, confidence 2/2, offset -611)
Statistics
Read error : 0
Jitter error (maybe fixed) : 0
Retry sector count : 0
Damaged sector count : 0
Track 13
Pre-gap length : 00:07:30
CRC32 hash : B5BCB97D
CRC32 hash (skip zero) : 587517BD
AccurateRip v1 signature : 95B1A72F
AccurateRip v2 signature : 71D0FA7C (855E0DB7 w/correction)
->Accurately ripped with different offset (v2, confidence 2/2, offset -611)
Statistics
Read error : 0
Jitter error (maybe fixed) : 0
Retry sector count : 0
Damaged sector count : 0
Track 14
CRC32 hash : F3611C74
CRC32 hash (skip zero) : E20027F5
AccurateRip v1 signature : E714D7C3
AccurateRip v2 signature : 14922DC3 (9312BC1E w/correction)
->Accurately ripped with different offset (v2, confidence 2/2, offset -611)
Statistics
Read error : 0
Jitter error (maybe fixed) : 0
Retry sector count : 0
Damaged sector count : 0
Track 15
CRC32 hash : 6BF597BC
CRC32 hash (skip zero) : C4AD8D05
AccurateRip v1 signature : 23751C62
AccurateRip v2 signature : 1F6D0D91 (AC957EB5 w/correction)
->Accurately ripped with different offset (v2, confidence 2/2, offset -611)
Statistics
Read error : 0
Jitter error (maybe fixed) : 0
Retry sector count : 0
Damaged sector count : 0
Track 16
CRC32 hash : 9E218D2B
CRC32 hash (skip zero) : 8AC56DB7
AccurateRip v1 signature : 5626543D
AccurateRip v2 signature : 95C5553D (1C089F04 w/correction)
->Accurately ripped with different offset (v2, confidence 2/2, offset -611)
Statistics
Read error : 0
Jitter error (maybe fixed) : 0
Retry sector count : 0
Damaged sector count : 0
Track 17
CRC32 hash : A2129DE4
CRC32 hash (skip zero) : B4AA417B
AccurateRip v1 signature : 5777FB1C
AccurateRip v2 signature : 6640ED25 (D0C88E38 w/correction)
->Accurately ripped with different offset (v2, confidence 2/2, offset -611)
Statistics
Read error : 0
Jitter error (maybe fixed) : 0
Retry sector count : 0
Damaged sector count : 0
Track 18
CRC32 hash : 2F7662F6
CRC32 hash (skip zero) : B2DB2D8C
AccurateRip v1 signature : 27F9EFB6
AccurateRip v2 signature : 174FC881 (4B5BD374 w/correction)
->Accurately ripped with different offset (v2, confidence 2/2, offset -611)
Statistics
Read error : 0
Jitter error (maybe fixed) : 0
Retry sector count : 0
Damaged sector count : 0
No errors occurred
End of status report

Лог создания рипа CD 2

X Lossless Decoder version 20140504 (147.0)
XLD extraction logfile from 2014-07-02 22:45:20 +0100
Leonard Warren; Leonie Rysanek; Carlo Bergonzi; Jerome Hines; Erich Leinsdorf; Metropolitan Opera / Macbeth - Erich Leinsdorf
Used drive : MATSHITA DVD-R UJ-8A8 (revision HB14)
Media type : Pressed CD
Ripper mode : XLD Secure Ripper
Disable audio cache : OK for the drive with a cache less than 1375KiB
Make use of C2 pointers : NO
Read offset correction : 102
Max retry count : 20
Gap status : Analyzed, Appended
TOC of the extracted CD
Track | Start | Length | Start sector | End sector
---------------------------------------------------------
1 | 00:00:00 | 01:28:30 | 0 | 6629
2 | 01:28:30 | 07:23:42 | 6630 | 39896
3 | 08:51:72 | 04:11:30 | 39897 | 58751
4 | 13:03:27 | 06:58:68 | 58752 | 90169
5 | 20:02:20 | 03:36:60 | 90170 | 106429
6 | 23:39:05 | 01:45:05 | 106430 | 114309
7 | 25:24:10 | 01:38:27 | 114310 | 121686
8 | 27:02:37 | 04:38:58 | 121687 | 142594
9 | 31:41:20 | 03:53:25 | 142595 | 160094
10 | 35:34:45 | 02:49:25 | 160095 | 172794
11 | 38:23:70 | 04:46:40 | 172795 | 194284
12 | 43:10:35 | 07:34:02 | 194285 | 228336
13 | 50:44:37 | 01:44:00 | 228337 | 236136
14 | 52:28:37 | 03:42:40 | 236137 | 252826
15 | 56:11:02 | 02:48:70 | 252827 | 265496
16 | 58:59:72 | 02:23:33 | 265497 | 276254
17 | 61:23:30 | 03:19:07 | 276255 | 291186
List of alternate offset correction values
# | Absolute | Relative | Confidence
------------------------------------------
1 | 299 | 197 | 4
2 | 1002 | 900 | 2
AccurateRip Summary (DiscID: 002a14fe-020ff3cb-d20f2a11)
Track 01 : OK (v2, confidence 3/5, with different offset)
Track 02 : OK (v2, confidence 4/6, with different offset)
Track 03 : OK (v2, confidence 4/6, with different offset)
Track 04 : OK (v2, confidence 4/6, with different offset)
Track 05 : OK (v2, confidence 4/6, with different offset)
Track 06 : OK (v2, confidence 4/6, with different offset)
Track 07 : OK (v2, confidence 4/6, with different offset)
Track 08 : OK (v2, confidence 4/6, with different offset)
Track 09 : OK (v2, confidence 4/6, with different offset)
Track 10 : OK (v2, confidence 4/6, with different offset)
Track 11 : OK (v2, confidence 4/6, with different offset)
Track 12 : OK (v2, confidence 4/6, with different offset)
Track 13 : OK (v2, confidence 4/6, with different offset)
Track 14 : OK (v2, confidence 4/6, with different offset)
Track 15 : OK (v2, confidence 4/6, with different offset)
Track 16 : OK (v2, confidence 4/6, with different offset)
Track 17 : OK (v2, confidence 3/5, with different offset)
->All tracks accurately ripped.
All Tracks
Filename : /Users/juan/Music/Macbeth - Erich Leinsdorf.flac
CRC32 hash : 15167783
CRC32 hash (skip zero) : E1C285C4
Statistics
Read error : 0
Jitter error (maybe fixed) : 0
Retry sector count : 0
Damaged sector count : 0
Track 01
Pre-gap length : 00:02:00
CRC32 hash : 9231CFCC
CRC32 hash (skip zero) : CFF56B84
AccurateRip v1 signature : BB1B4470
AccurateRip v2 signature : 04F27428 (4D329F25 w/correction)
->Accurately ripped with different offset (v2, confidence 3/5, offset +197)
Statistics
Read error : 0
Jitter error (maybe fixed) : 0
Retry sector count : 0
Damaged sector count : 0
Track 02
CRC32 hash : 7BF4AC50
CRC32 hash (skip zero) : ACA76B85
AccurateRip v1 signature : EFD259F5
AccurateRip v2 signature : 9353B129 (C581023E w/correction)
->Accurately ripped with different offset (v2, confidence 4/6, offset +197)
Statistics
Read error : 0
Jitter error (maybe fixed) : 0
Retry sector count : 0
Damaged sector count : 0
Track 03
Pre-gap length : 00:09:37
CRC32 hash : A1BF60EA
CRC32 hash (skip zero) : 219C7F38
AccurateRip v1 signature : 7B9053B4
AccurateRip v2 signature : 0AB0B78A (9DE264AD w/correction)
->Accurately ripped with different offset (v2, confidence 4/6, offset +197)
Statistics
Read error : 0
Jitter error (maybe fixed) : 0
Retry sector count : 0
Damaged sector count : 0
Track 04
CRC32 hash : 7CE8AC95
CRC32 hash (skip zero) : 522F5BD6
AccurateRip v1 signature : C864C09C
AccurateRip v2 signature : F0C742F6 (BBE5706D w/correction)
->Accurately ripped with different offset (v2, confidence 4/6, offset +197)
Statistics
Read error : 0
Jitter error (maybe fixed) : 0
Retry sector count : 0
Damaged sector count : 0
Track 05
CRC32 hash : 2200C090
CRC32 hash (skip zero) : 62A34125
AccurateRip v1 signature : 522A88FF
AccurateRip v2 signature : B2322591 (405AC79A w/correction)
->Accurately ripped with different offset (v2, confidence 4/6, offset +197)
Statistics
Read error : 0
Jitter error (maybe fixed) : 0
Retry sector count : 0
Damaged sector count : 0
Track 06
CRC32 hash : F389C74D
CRC32 hash (skip zero) : 3BF9F4B4
AccurateRip v1 signature : 7FA4ED05
AccurateRip v2 signature : 68266A99 (690CD9BC w/correction)
->Accurately ripped with different offset (v2, confidence 4/6, offset +197)
Statistics
Read error : 0
Jitter error (maybe fixed) : 0
Retry sector count : 0
Damaged sector count : 0
Track 07
CRC32 hash : B114DB7F
CRC32 hash (skip zero) : 37905502
AccurateRip v1 signature : 56C3BC85
AccurateRip v2 signature : CFB0FE5D (1D70218F w/correction)
->Accurately ripped with different offset (v2, confidence 4/6, offset +197)
Statistics
Read error : 0
Jitter error (maybe fixed) : 0
Retry sector count : 0
Damaged sector count : 0
Track 08
Pre-gap length : 00:08:26
CRC32 hash : 91855904
CRC32 hash (skip zero) : F69CE732
AccurateRip v1 signature : FD3E1B8C
AccurateRip v2 signature : 7FD45A0A (AE4DDEF2 w/correction)
->Accurately ripped with different offset (v2, confidence 4/6, offset +197)
Statistics
Read error : 0
Jitter error (maybe fixed) : 0
Retry sector count : 0
Damaged sector count : 0
Track 09
CRC32 hash : 22602DC2
CRC32 hash (skip zero) : 9B4D8C4D
AccurateRip v1 signature : 0BB95291
AccurateRip v2 signature : 310E1FEF (7672DC91 w/correction)
->Accurately ripped with different offset (v2, confidence 4/6, offset +197)
Statistics
Read error : 0
Jitter error (maybe fixed) : 0
Retry sector count : 0
Damaged sector count : 0
Track 10
CRC32 hash : 8FABA0F9
CRC32 hash (skip zero) : 5AB3BAE7
AccurateRip v1 signature : C833A900
AccurateRip v2 signature : F916A5B1 (3435850D w/correction)
->Accurately ripped with different offset (v2, confidence 4/6, offset +197)
Statistics
Read error : 0
Jitter error (maybe fixed) : 0
Retry sector count : 0
Damaged sector count : 0
Track 11
CRC32 hash : 5800D819
CRC32 hash (skip zero) : 8411691C
AccurateRip v1 signature : 56930BFE
AccurateRip v2 signature : 2843CC8F (77E39A3F w/correction)
->Accurately ripped with different offset (v2, confidence 4/6, offset +197)
Statistics
Read error : 0
Jitter error (maybe fixed) : 0
Retry sector count : 0
Damaged sector count : 0
Track 12
CRC32 hash : 3F0D25AE
CRC32 hash (skip zero) : 1E233315
AccurateRip v1 signature : 32639307
AccurateRip v2 signature : 1394EE28 (906C14CE w/correction)
->Accurately ripped with different offset (v2, confidence 4/6, offset +197)
Statistics
Read error : 0
Jitter error (maybe fixed) : 0
Retry sector count : 0
Damaged sector count : 0
Track 13
CRC32 hash : 0F53AE3D
CRC32 hash (skip zero) : 10A3082D
AccurateRip v1 signature : E5D47AAC
AccurateRip v2 signature : 273166A6 (51C54716 w/correction)
->Accurately ripped with different offset (v2, confidence 4/6, offset +197)
Statistics
Read error : 0
Jitter error (maybe fixed) : 0
Retry sector count : 0
Damaged sector count : 0
Track 14
CRC32 hash : FE9C9086
CRC32 hash (skip zero) : 3C4F512D
AccurateRip v1 signature : 2916D8A3
AccurateRip v2 signature : 0798FA38 (982A4F73 w/correction)
->Accurately ripped with different offset (v2, confidence 4/6, offset +197)
Statistics
Read error : 0
Jitter error (maybe fixed) : 0
Retry sector count : 0
Damaged sector count : 0
Track 15
CRC32 hash : 16857314
CRC32 hash (skip zero) : 7DA798EB
AccurateRip v1 signature : 91B48656
AccurateRip v2 signature : 3026BA28 (F0694726 w/correction)
->Accurately ripped with different offset (v2, confidence 4/6, offset +197)
Statistics
Read error : 0
Jitter error (maybe fixed) : 0
Retry sector count : 0
Damaged sector count : 0
Track 16
CRC32 hash : 7F588BAA
CRC32 hash (skip zero) : 71F2AD18
AccurateRip v1 signature : A9D9E4EB
AccurateRip v2 signature : CCCC6F30 (581C9683 w/correction)
->Accurately ripped with different offset (v2, confidence 4/6, offset +197)
Statistics
Read error : 0
Jitter error (maybe fixed) : 0
Retry sector count : 0
Damaged sector count : 0
Track 17
CRC32 hash : FB94B70E
CRC32 hash (skip zero) : 30617D99
AccurateRip v1 signature : 6A676B69
AccurateRip v2 signature : 01FA3046 (77136716 w/correction)
->Accurately ripped with different offset (v2, confidence 3/5, offset +197)
Statistics
Read error : 0
Jitter error (maybe fixed) : 0
Retry sector count : 0
Damaged sector count : 0
No errors occurred
End of status report

Содержание индексной карты (.CUE)Содержание индексной карты (.CUE) CD 1

TITLE "Macbeth"
PERFORMER "Verdi"
REM GENRE "Opera"
REM DISCID F20F6212
FILE "Macbeth.flac" WAVE
TRACK 01 AUDIO
TITLE "ATTO 1: Preludio"
INDEX 01 00:00:00
TRACK 02 AUDIO
TITLE "Scena 1: Che faceste? Dite su!"
INDEX 01 04:20:55
TRACK 03 AUDIO
TITLE "Giorno non vidi mai sì fiero e bello"
INDEX 01 07:00:25
TRACK 04 AUDIO
TITLE "Due vaticini compiuti or sono"
INDEX 01 10:56:25
TRACK 05 AUDIO
TITLE "S'allontanarono!"
INDEX 01 14:23:53
TRACK 06 AUDIO
TITLE "Scena 2: Nel dì della vittoria io le incontrai"
INDEX 01 17:02:05
TRACK 07 AUDIO
TITLE "Vieni! t'affretta!"
INDEX 01 18:36:00
TRACK 08 AUDIO
TITLE "Oh donna mia!"
INDEX 01 24:08:63
TRACK 09 AUDIO
TITLE "Sappia la sposa mia"
INDEX 01 27:54:23
TRACK 10 AUDIO
TITLE "Fatal mia donna!"
INDEX 01 32:26:53
TRACK 11 AUDIO
TITLE "Di destarlo per tempo il re m'impose"
INDEX 01 38:10:43
TRACK 12 AUDIO
TITLE "Schiudi, inferno, inghiotti"
INDEX 01 40:47:00
TRACK 13 AUDIO
TITLE "ATTO 2 Scena 1: Perche' mi sfuggi"
INDEX 00 45:24:60
INDEX 01 45:32:15
TRACK 14 AUDIO
TITLE "La luce langue"
INDEX 01 48:20:73
TRACK 15 AUDIO
TITLE "Scena 2: Chi v'impose unirvi a noi?"
INDEX 01 51:56:43
TRACK 16 AUDIO
TITLE "Studia il passo; Come dal ciel precipita"
INDEX 01 55:11:05
TRACK 17 AUDIO
TITLE "Scena 3: Salve, o Re!"
INDEX 01 59:48:20
TRACK 18 AUDIO
TITLE "Si colmi il calice"
INDEX 01 61:48:23

Содержание индексной карты (.CUE) CD 2

TITLE "Macbeth - Erich Leinsdorf"
PERFORMER "Leonard Warren; Leonie Rysanek; Carlo Bergonzi; Jerome Hines; Erich Leinsdorf; Metropolitan Opera"
REM GENRE "Opera"
REM DATE "1959"
REM DISCID D20F2A11
FILE "Macbeth - Erich Leinsdorf.flac" WAVE
TRACK 01 AUDIO
TITLE "Act II - 3 - Voi siete demente!"
INDEX 01 00:00:00
TRACK 02 AUDIO
TITLE "Act II - 3 - Spirto d'abisso!"
INDEX 01 01:28:30
TRACK 03 AUDIO
TITLE "Act III - 1 - Tre volte miagola la gatta"
INDEX 00 08:42:35
INDEX 01 08:51:72
TRACK 04 AUDIO
TITLE "Act III - 1 - Che fate voi, misteriose donne?"
INDEX 01 13:03:27
TRACK 05 AUDIO
TITLE "Act III - 1 - Fuggi, regal fantasima"
INDEX 01 20:02:20
TRACK 06 AUDIO
TITLE "Act III - 1 - Ove son io?"
INDEX 01 23:39:05
TRACK 07 AUDIO
TITLE "Act III - 1 - Ora di morte e di vendetta"
INDEX 01 25:24:10
TRACK 08 AUDIO
TITLE "Act IV - 1 - Patria oppressa!"
INDEX 00 26:54:11
INDEX 01 27:02:37
TRACK 09 AUDIO
TITLE "Act IV - 1 - O figli; Ah, la paterna mano"
INDEX 01 31:41:20
TRACK 10 AUDIO
TITLE "Act IV - 1 - Dove siam? che bosco è quello?"
INDEX 01 35:34:45
TRACK 11 AUDIO
TITLE "Act IV - 2 - Vegliammo invan due notti"
INDEX 01 38:23:70
TRACK 12 AUDIO
TITLE "Act IV - 2 - Unna macchia è qui tuttora"
INDEX 01 43:10:35
TRACK 13 AUDIO
TITLE "Act IV - 3 - Perfidi! All'Anglo contro me"
INDEX 01 50:44:37
TRACK 14 AUDIO
TITLE "Act IV - 3 - Pietà, rispetto, amore"
INDEX 01 52:28:37
TRACK 15 AUDIO
TITLE "Act IV - 3 - Ella è morta!"
INDEX 01 56:11:02
TRACK 16 AUDIO
TITLE "Act IV - 3 - Mal per me che m'affidai"
INDEX 01 58:59:72
TRACK 17 AUDIO
TITLE "Act IV - 3 - Vittoria! Vittoria!"
INDEX 01 61:23:30

Треклист

Disc 1:
1. Prelude
Act I:
2. Che faceste? Dite su!
3. Giorno non vidi mai sì fiero e bello!
4. Due vaticini compiuti or sono
5. S' allontanarono!
6. "Nel dì della vittoria io le incontrai..."
7. Vieni! t'affretta! accendre
8. Oh donna mia!
9. Sappia la sposa mia
10. Fatal mia donna!
11. Di destarlo per tempo il Re m'impose
12. Schiudi, inferno, inghiotti
Act II:
13. Perchè mi sfuggi
14. La luce langue
15. Chi v'impose unirvi a noi?
Giuseppe Verdi
16. Studia il passo; Come dal ciel precipita
17. Salve, o Re!
18. Si colmi il calice
Disc 2:
1. Voi siete demente!
2. Spirto d'abisso!
Act III:
3. Tre volte miagola la gatta
4. Che fate voi, misteriose donne?
5. Fuggi, regal fatasima
6. Ove son io?
7. Ora di morte e di vendetta
Act IV:
8. Patria oppressa!
9. O figli; Ah, la paterna mano
10. Dove siam? che bosco è quello?
11. Vegliammo invan due notti
12. Una macchia è qui tuttora
13. Perfidi! All' Anglo contro me
14. Pietà, rispetto, amore
15. Ella è morta!
16. Mal per me che m'affidai
17. Vittoria! Vittoria!



Показать сообщения:    

Текущее время: 06-Дек 20:55

Часовой пояс: UTC + 3


Вы не можете начинать темы
Вы не можете отвечать на сообщения
Вы не можете редактировать свои сообщения
Вы не можете удалять свои сообщения
Вы не можете голосовать в опросах
Вы не можете прикреплять файлы к сообщениям
Вы не можете скачивать файлы