[TR24][OF] Johann Sebastian Bach - Harpsichord Concertos (Andreas Staier & Freiburger Barockorchester) (Concert for harpsichord and Orchestra) - 2015 (Classical)


Статистика раздачи [Обновить пиров]
Размер:  2.31 GB   |    Зарегистрирован:  8 месяцев 14 дней   |    Скачан:  0 раз

Полного источника не было: Никогда

 
   
 
 
 

[Цитировать]

Johann Sebastian Bach - Harpsichord Concertos (Andreas Staier & Freiburger Barockorchester)
Формат записи/Источник записи: [TR24][OF]
Наличие водяных знаков: Нет
Год издания/переиздания диска: 2015
Жанр: Concert for harpsichord and Orchestra
Издатель(лейбл): Harmonia Mundi
Продолжительность: 01:54:05
Исполнители:
Andreas Staier, harpsichord,
Freiburger Barockorchester,
Petra Müllejans, Conductor.
Recorded on July, 2013, at Freiburg, Ensemblehaus.
Контейнер: FLAC (*.flac)
Тип рипа: tracks
Разрядность: 24/96
Количество каналов: 2.0
Источник: HDTracks

Dynamic Range Meter

foobar2000 1.3.8 / Dynamic Range Meter 1.1.1
log date: 2015-08-25 17:39:29
--------------------------------------------------------------------------------
Analyzed: Andreas Staier, Freiburger Barockorchester / J. S. Bach: Harpsichord Concertos
--------------------------------------------------------------------------------
DR Peak RMS Duration Track
--------------------------------------------------------------------------------
DR13 -0.30 dB -17.13 dB 7:48 1/9-Concerto No.1 BWV 1052 in D minor: I. Allegro
DR13 -1.67 dB -21.22 dB 7:07 2/9-Concerto No.1 BWV 1052 in D minor: II. Adagio
DR14 -0.30 dB -19.07 dB 8:05 3/9-Concerto No.1 BWV 1052 in D minor: III. Allegro
DR15 -3.18 dB -22.33 dB 8:31 4/9-Concerto No.2 BWV 1053 in E major: I.
DR13 -7.33 dB -26.21 dB 4:44 5/9-Concerto No.2 BWV 1053 in E major: II. Siciliano
DR15 -2.24 dB -21.15 dB 6:39 6/9-Concerto No.2 BWV 1053 in E major: III. Allegro
DR13 -0.44 dB -16.76 dB 3:37 7/9-Concerto No.7 BWV 1058 in G minor: I.
DR14 -4.05 dB -22.29 dB 5:46 8/9-Concerto No.7 BWV 1058 in G minor: II. Andante
DR13 -0.30 dB -16.59 dB 4:07 9/9-Concerto No.7 BWV 1058 in G minor: III. Allegro assai
DR14 -0.30 dB -18.65 dB 7:42 10/12-Concerto No.3 BWV 1054 in D major: I.
DR13 -6.20 dB -24.12 dB 6:39 11/12-Concerto No.3 BWV 1054 in D major: II. Adagio e piano sempre
DR13 -0.30 dB -17.79 dB 2:41 12/12-Concerto No.3 BWV 1054 in D major: III. Allegro
DR13 -3.51 dB -20.57 dB 4:25 13/12-Concerto No.4 BWV 1055 in A major: I. Allegro
DR14 -1.41 dB -21.22 dB 5:15 14/12-Concerto No.4 BWV 1055 in A major: II. Larghetto
DR13 -1.91 dB -19.99 dB 4:20 15/12-Concerto No.4 BWV 1055 in A major: III. Allegro ma non troppo
DR14 -0.30 dB -19.79 dB 3:06 16/12-Concerto No.5 BWV 1056 in F minor: I.
DR12 -9.95 dB -28.10 dB 2:41 17/12-Concerto No.5 BWV 1056 in F minor: II. Largo
DR13 -1.39 dB -19.59 dB 3:37 18/12-Concerto No.5 BWV 1056 in F minor: III. Presto
DR12 -0.38 dB -16.74 dB 6:52 19/12-Concerto No.6 BWV 1057 in F major: I.
DR12 -1.11 dB -17.08 dB 3:33 20/12-Concerto No.6 BWV 1057 in F major: II. Andante
DR12 -0.30 dB -15.20 dB 4:50 21/12-Concerto No.6 BWV 1057 in F major: III. Allegro assai
--------------------------------------------------------------------------------
Number of tracks: 21
Official DR value: DR13
Samplerate: 96000 Hz
Channels: 2
Bits per sample: 24
Bitrate: 3069 kbps
Codec: FLAC
================================================================================

Треклист

Concerto No.1 BWV 1052 in D minor:
01. I. Allegro 7’48
02. II. Adagio 7’06
03. III. Allegro 8’05
Concerto No.2 BWV 1053 in E major:
04. I. - 8’31
05. II. Siciliano 4’43
06. III. Allegro 6’38
Concerto No.7 BWV 1058 in G minor:
07. I. - 3’36
08. II. Andante 5’46
09. III. Allegro assai 4’06
Concerto No.3 BWV 1054 in D major:
10. I. - 7’41
11. II. Adagio e piano sempre 6’39
12. III. Allegro 2’41
Concerto No.4 BWV 1055 in A major:
13. I. Allegro 4’24
14. II. Larghetto 5’14
15. III. Allegro ma non troppo 4’20
Concerto No.5 BWV 1056 in F minor:
16. I. - 3’05
17. II. Largo 2’40
18. III. Presto 3’36
Concerto No.6 BWV 1057 in F major:
19. I. - 6’52
20. II. Andante 3’32
21. III. Allegro assai 4’50
[teatrix.ru].t22118.torrent 
Торрент: Зарегистрирован [ 2016-03-20 12:43 ] · C72ACDBC2E29C14A12C95CF0D515750434A65573

Скачать .torrent

Скачать

14 KB

Статус: проверено
Скачан: 0 раз
Размер: 2.31 GB
terms.php



Быстрый ответ

Имя:

      
Для отправки сообщений необходимо включить JavaScript
Показать сообщения:    

Текущее время: 04-Дек 06:58

Часовой пояс: UTC + 3


Вы можете начинать темы
Вы можете отвечать на сообщения
Вы не можете редактировать свои сообщения
Вы не можете удалять свои сообщения
Вы не можете голосовать в опросах
Вы не можете прикреплять файлы к сообщениям
Вы можете скачивать файлы