Верди - Дон Карлос (Городской театр Модены) / Verdi - Don Carlos (Teatro Comunale in Modena; Franconi Lee, Ventura; Prestia, Malagnini, Piazzola, Montanaro, Costea, Pozniak, Candelier, Feltracco) [2012, Opera, Blu-ray 1080i]


 

[Цитировать]

Джузеппе Верди - Дон Карлос / Giuseppe Verdi - Don Carlos
из серии «Верди - Полная коллекция опер / Tutto Verdi - The Complete Operas (2005-2012)
[27-Disc Edition]»
23-й диск из 27 Год выпуска: 2012
Лейбл: C MAJOR, Unitel Classica, Teatro Comunale Luciano Pavarotti in Modena
Страна-производитель: США, Италия
Жанр: Opera
Продолжительность: 03:24:02
Язык: Итальянский
Субтитры: Английские, немецкие, французские, итальянские, испанские, китайские, корейские, японские
Режиссер: Joseph Franconi Lee (Джозеф Франкони Ли)
Дирижер: Fabrizio Ventura (Фабрицио Вентура)
Исполнители:
Giacomo Prestia (Джакомо Престиа) - Filippo II,
Mario Malagnini (Марио Маланьини) - Don Carlo,
Simone Piazzola (Симоне Пьяццола) - Rodrigo,
Luciano Montanaro (Лучано Монтанаро) - The Grande Inquisitor,
Paolo Buttol (Паоло Буттоль) - An Old Monk,
Cellia Costea (Селия Костеа) - Elisabetta di Valois,
Alla Pozniak (Алла Позняк) - Eboli,
Irene Candelier (Ирен Канделье) - Tebaldo / Una Voce dal Cielo,
Giulio Pelligra (Джулио Пеллигра) - The Count of Lerma,
Marco Gaspari (Марко Гаспари) - A Royal Herald
Orchestral Regionale dell'Emilia-Romagna (оркестр Региональной Энотекой Эмилии-Романьи), Coro Lirico Amadeus
Recorded live at the Teatro Comunale "Luciano Pavarotti" di Modena, October 2012
Описание: «Дон Карлос» (фр. Don Carlos, итал. Don Carlo) — «большая» опера Джузеппе Верди в 5 действиях, 7 картинах, на либретто Камиля де Локля и Жозефа Мери по мотивам одноимённой драмы Шиллера (нем. Don Karlos, Infant von Spanien)[1]. Однако основой для одного из актов — сцена в Фонтебло — послужила другая новелла на тот же сюжет: «Филипп Второй, король Испании» (Philippe II, Roi d’Espagne), автором которой был французский драматург Эжен Кормон.
Премьера состоялась в Парижской опере 11 марта 1867 года.
Полная версия оперы в пяти действиях с балетом продолжается около четырёх часов и является наиболее продолжительной оперой Верди; при жизни композитора и после его смерти появились многочисленные, более короткие редакции. За пределами Франции опера, как правило, исполняется на итальянском языке в переводе де Лозьера.
«Дон Карлос» Верди — пятая по счёту опера под этим названием после сочинений Майкла Косты (1844), Паскуале Боны (1847), Антонио Буццоллы (1850) и Винченцо Москуццы (1862).
Бонус: рассказ об опере и краткое содержание (на англ. и итальянском языках)
Об опере

Верди: Полная коллекция опер / Tutto Verdi: The Complete Operas (оригинальное описание)

To mark the bicentenary of Giuseppe Verdi’s birth, the TEATRO REGIO DI PARMAand UNITEL CLASSICA have joined forces to realize a truly unique project. All of the composer’s 26 operas, as well as the Requiem – which is closely related to the operas – are included. Most of them will be performed and audio-visually recorded in and around Parma. For the first time ever, and in time for the composer’s anniversary, Verdi’s complete operatic output will be available in High Definition and Surround Sound and released on DVD and Blu-ray by C MAJOR ENTERTAINMENT. As an additional feature, each release includes a ten-minute introduction explaining the story, characters and history of the opera. Some of the operas will be released for the first time on DVD (Un giorno di regno and Alzira) and many of them will be appearing for the first time on Blu-ray (Luisa Miller, Il corsaro, Giovanna d’Arco, I Lombardi, Nabucco, I due Foscari, Un giorno di regno, I Vespri siciliani, La battaglia di Legnano, Stiffelio, Alzira, I masnadieri, Don Carlo and Ernani).
Giuseppe Verdi was born in the little town of Roncole in the vicinity of Parma and spent the longest period of his life in seclusion close to Parma. He died in Milan in 1901. Today, the region of Parma honours its one-time fellow citizen with the international Verdi Festival organized by the Teatro Regio di Parma. Every year, Verdi’s masterworks are performed in the historical theatres of Parma and neighbouring Busseto over 28 days in the autumn. International singers such as Leo Nucci, Marcelo Álvarez, Renato Bruson, Fiorenza Cedolins, Daniela Dessì and Nino Machaidze and conductors such as Yuri Temirkanov and Gianluigi Gelmetti help to raise these performances to the level of highly acclaimed events in the operatic calendar. Directors include Pier Luigi Pizzi, Daniele Abbado and Pier’Alli. The Teatro Regio was opened during Verdi’s lifetime, in 1829, as the Nuovo Teatro Ducale. It is regarded as one of the most important theatres in Italy. Its audiences, in particular, enjoy a very special reputation as one of the most critical in the world. Many singers report on the fears that grip them while onstage, and others tell about the moments of bliss when they are acclaimed there. It is said that tenors who fail on the stage of the Regio are punished even by the porters at local hotels, who refuse to carry their luggage for them.
Качество видео: Blu-ray
Формат/Контейнер: BDMV
Видео кодек: MPEG4
Аудио кодек: LPCM, DTS
Видео поток: MPEG-4 Video, 1920x1080, 30924 kbps, 29.970 fps
Аудио поток: LPCM, 2304 kbps, 48 kHz, 2 ch. DTS-HD MA, 1509 kbps, 48 kHz, 6 ch

MediaInfo

Общее
Идентификатор : 0 (0x0)
Полное имя : M:\Blu-ray 50\Верди - Полная коллекция опер (2005-2012) [27-Disc Edition] (Blu-ray 1080i, AVC, DTS-HD 5.1)\Верди - Дон Карлос (Teatro Comunale Luciano Pavarotti in Modena) (2012) (Blu-ray 1080i, AVC, DTS-HD 5.1)\BDMV\STREAM\00001.m2ts
Формат : BDAV
Формат/Информация : Blu-ray Video
Размер файла : 15,4 Гбайт
Продолжительность : 1 ч. 26 м.
Режим общего битрейта : Переменный
Общий поток : 25,5 Мбит/сек
Максимальный общий битрейт : 48,0 Мбит/сек
Видео
Идентификатор : 4113 (0x1011)
Идентификатор меню : 1 (0x1)
Формат : AVC
Формат/Информация : Advanced Video Codec
Профиль формата : High@L4.1
Параметр CABAC формата : Да
Параметр ReFrames формата : 4 кадра
Идентификатор кодека : 27
Продолжительность : 1 ч. 26 м.
Вид битрейта : Переменный
Максимальный битрейт : 30,5 Мбит/сек
Ширина : 1920 пикселей
Высота : 1080 пикселей
Соотношение сторон : 16:9
Частота кадров : 29,970 кадров/сек
Цветовое пространство : YUV
Субдискретизация насыщенности : 4:2:0
Битовая глубина : 8 бит
Тип развёртки : MBAFF
Порядок развёртки : Верхнее поле первое
Аудио #1
Идентификатор : 4352 (0x1100)
Идентификатор меню : 1 (0x1)
Формат : PCM
Параметр Endianness формата : Big
Параметр Sign формата : Signed
Режим смешивания : Blu-ray
Идентификатор кодека : 128
Продолжительность : 1 ч. 26 м.
Вид битрейта : Постоянный
Битрейт : 2304 Кбит/сек
Каналы : 2 канала
Расположение каналов : Front: L R
Частота : 48,0 КГц
Битовая глубина : 24 бит
Размер потока : 1,39 Гбайт (9%)
Аудио #2
Идентификатор : 4353 (0x1101)
Идентификатор меню : 1 (0x1)
Формат : DTS
Формат/Информация : Digital Theater Systems
Профиль формата : MA / Core
Режим : 16
Параметр Endianness формата : Big
Режим смешивания : Stream extension
Идентификатор кодека : 134
Продолжительность : 1 ч. 26 м.
Вид битрейта : Переменный
Битрейт : Неизвестно / 1509 Кбит/сек
Каналы : 6 каналов
Расположение каналов : Front: L C R, Side: L R, LFE
Частота : 48,0 КГц
Битовая глубина : 24 бит
Метод сжатия : Без потерь / Lossy
Текст #1
Идентификатор : 4608 (0x1200)
Идентификатор меню : 1 (0x1)
Формат : PGS
Идентификатор кодека : 144
Текст #2
Идентификатор : 4609 (0x1201)
Идентификатор меню : 1 (0x1)
Формат : PGS
Идентификатор кодека : 144
Текст #3
Идентификатор : 4610 (0x1202)
Идентификатор меню : 1 (0x1)
Формат : PGS
Идентификатор кодека : 144
Текст #4
Идентификатор : 4611 (0x1203)
Идентификатор меню : 1 (0x1)
Формат : PGS
Идентификатор кодека : 144
Текст #5
Идентификатор : 4612 (0x1204)
Идентификатор меню : 1 (0x1)
Формат : PGS
Идентификатор кодека : 144
Текст #6
Идентификатор : 4613 (0x1205)
Идентификатор меню : 1 (0x1)
Формат : PGS
Идентификатор кодека : 144
Текст #7
Идентификатор : 4614 (0x1206)
Идентификатор меню : 1 (0x1)
Формат : PGS
Идентификатор кодека : 144
Текст #8
Идентификатор : 4615 (0x1207)
Идентификатор меню : 1 (0x1)
Формат : PGS
Идентификатор кодека : 144
Общее
Идентификатор : 0 (0x0)
Полное имя : M:\Blu-ray 50\Верди - Полная коллекция опер (2005-2012) [27-Disc Edition] (Blu-ray 1080i, AVC, DTS-HD 5.1)\Верди - Дон Карлос (Teatro Comunale Luciano Pavarotti in Modena) (2012) (Blu-ray 1080i, AVC, DTS-HD 5.1)\BDMV\STREAM\00015.m2ts
Формат : BDAV
Формат/Информация : Blu-ray Video
Размер файла : 20,5 Гбайт
Продолжительность : 1 ч. 57 м.
Режим общего битрейта : Переменный
Общий поток : 25,0 Мбит/сек
Максимальный общий битрейт : 48,0 Мбит/сек
Видео
Идентификатор : 4113 (0x1011)
Идентификатор меню : 1 (0x1)
Формат : AVC
Формат/Информация : Advanced Video Codec
Профиль формата : High@L4.1
Параметр CABAC формата : Да
Параметр ReFrames формата : 4 кадра
Идентификатор кодека : 27
Продолжительность : 1 ч. 57 м.
Вид битрейта : Переменный
Максимальный битрейт : 30,5 Мбит/сек
Ширина : 1920 пикселей
Высота : 1080 пикселей
Соотношение сторон : 16:9
Частота кадров : 29,970 кадров/сек
Цветовое пространство : YUV
Субдискретизация насыщенности : 4:2:0
Битовая глубина : 8 бит
Тип развёртки : MBAFF
Порядок развёртки : Верхнее поле первое
Аудио #1
Идентификатор : 4352 (0x1100)
Идентификатор меню : 1 (0x1)
Формат : PCM
Параметр Endianness формата : Big
Параметр Sign формата : Signed
Режим смешивания : Blu-ray
Идентификатор кодека : 128
Продолжительность : 1 ч. 57 м.
Вид битрейта : Постоянный
Битрейт : 2304 Кбит/сек
Каналы : 2 канала
Расположение каналов : Front: L R
Частота : 48,0 КГц
Битовая глубина : 24 бит
Размер потока : 1,89 Гбайт (9%)
Аудио #2
Идентификатор : 4353 (0x1101)
Идентификатор меню : 1 (0x1)
Формат : DTS
Формат/Информация : Digital Theater Systems
Профиль формата : MA / Core
Режим : 16
Параметр Endianness формата : Big
Режим смешивания : Stream extension
Идентификатор кодека : 134
Продолжительность : 1 ч. 57 м.
Вид битрейта : Переменный
Битрейт : Неизвестно / 1509 Кбит/сек
Каналы : 6 каналов
Расположение каналов : Front: L C R, Side: L R, LFE
Частота : 48,0 КГц
Битовая глубина : 24 бит
Метод сжатия : Без потерь / Lossy
Текст #1
Идентификатор : 4608 (0x1200)
Идентификатор меню : 1 (0x1)
Формат : PGS
Идентификатор кодека : 144
Текст #2
Идентификатор : 4609 (0x1201)
Идентификатор меню : 1 (0x1)
Формат : PGS
Идентификатор кодека : 144
Текст #3
Идентификатор : 4610 (0x1202)
Идентификатор меню : 1 (0x1)
Формат : PGS
Идентификатор кодека : 144
Текст #4
Идентификатор : 4611 (0x1203)
Идентификатор меню : 1 (0x1)
Формат : PGS
Идентификатор кодека : 144
Текст #5
Идентификатор : 4612 (0x1204)
Идентификатор меню : 1 (0x1)
Формат : PGS
Идентификатор кодека : 144
Текст #6
Идентификатор : 4613 (0x1205)
Идентификатор меню : 1 (0x1)
Формат : PGS
Идентификатор кодека : 144
Текст #7
Идентификатор : 4614 (0x1206)
Идентификатор меню : 1 (0x1)
Формат : PGS
Идентификатор кодека : 144
Текст #8
Идентификатор : 4615 (0x1207)
Идентификатор меню : 1 (0x1)
Формат : PGS
Идентификатор кодека : 144
Семпл

Скриншоты


Скриншоты доп. материалов




Показать сообщения:    

Текущее время: 07-Дек 19:27

Часовой пояс: UTC + 3


Вы не можете начинать темы
Вы не можете отвечать на сообщения
Вы не можете редактировать свои сообщения
Вы не можете удалять свои сообщения
Вы не можете голосовать в опросах
Вы не можете прикреплять файлы к сообщениям
Вы не можете скачивать файлы