Чарльз Буковски / Интервью Чарльза Буковски / The Charles Bukowski tapes / Charles Bukowski (Barbet Schroeder / Барбет Шредер) [1987, США, Документальный, DVDRip, 2 серии] VO (Алексей Багичев) + Original Eng


Статистика раздачи [Обновить пиров]
Размер:  2.27 GB   |    Зарегистрирован:  8 месяцев 20 дней   |    Скачан:  1 раз

Полного источника не было: 1 месяц 21 день

 
   
 
 
 

[Цитировать]

Чарльз Буковски / Интервью Чарльза Буковски / The Charles Bukowski tapes / Charles Bukowski
Страна: США
Жанр: Документальный
Год выпуска: 1987
Продолжительность: 03:51:33
Перевод: Одноголосый закадровый Алексей Багичев
Cубтитры: нет
Оригинальная аудиодорожка: английский
Режиссер: Barbet Schroeder / Барбет Шредер
В ролях: Чарльз Буковски, Линда Буковски
Описание: Ходит легенда, что когда вначале у Барбета Шредера не было денег, чтобы снять "Пьянь", он взял камеру и пошел домой к Чарльзу Буковски, где на протяжении долгого времени каждый день брал у него интервью. Благодаря чему на свет появился этот уникальный фильм.
Доп. информация: Фильм состоит из двух частей. На русском языке впервые.
Продолжительность первой части - 01:57:35, второй - 01:53:58
Сэмпл 1 серия: http://multi-up.com/1064176
Сэмпл 2 серия: http://multi-up.com/1064185
Качество видео: DVDRip
Формат видео: AVI
Видео 1 часть: 720x480 (1.50:1), 23.976 fps, XviD build 40 ~1006 kbps avg, 0.12 bit/pixel
Видео 2 часть: 720x480 (1.50:1), 23.976 fps, DivX Codec 4.x ~1005 kbps avg, 0.12 bit/pixel
Аудио: 48 kHz, MPEG Layer 3, 2 ch, ~192.00 kbps avg - Rus
Аудио 2: 48 kHz, MPEG Layer 3, 2 ch, ~192.00 kbps avg - Eng

MediaInfo

General
Complete name : F:\видео 2\The Charles Bukowski Tapes\Buk\The Charles Bukowski Tapes 1 Bagichev.avi
Format : AVI
Format/Info : Audio Video Interleave
File size : 1.15 GiB
Duration : 1h 57mn
Overall bit rate : 1 406 Kbps
Writing application : VirtualDubMod 1.5.10.3 | www.virtualdub-fr.org || (build 2550/release)
Writing library : VirtualDubMod build 2550/release
Video
ID : 0
Format : MPEG-4 Visual
Format profile : Advanced Simple@L5
Format settings, BVOP : 2
Format settings, QPel : No
Format settings, GMC : No warppoints
Format settings, Matrix : Default (H.263)
Codec ID : XVID
Codec ID/Hint : XviD
Duration : 1h 57mn
Bit rate : 1 008 Kbps
Width : 720 pixels
Height : 480 pixels
Display aspect ratio : 4:3
Original display aspect ratio : 3:2
Frame rate : 23.976 fps
Color space : YUV
Chroma subsampling : 4:2:0
Bit depth : 8 bits
Scan type : Progressive
Compression mode : Lossy
Bits/(Pixel*Frame) : 0.122
Stream size : 847 MiB (72%)
Writing library : XviD 1.1.0 RC (UTC 2005-11-22)
Audio #1
ID : 1
Format : MPEG Audio
Format version : Version 1
Format profile : Layer 3
Mode : Joint stereo
Codec ID : 55
Codec ID/Hint : MP3
Duration : 1h 57mn
Bit rate mode : Constant
Bit rate : 192 Kbps
Channel(s) : 2 channels
Sampling rate : 48.0 KHz
Compression mode : Lossy
Stream size : 161 MiB (14%)
Alignment : Aligned on interleaves
Interleave, duration : 42 ms (1.00 video frame)
Interleave, preload duration : 504 ms
Audio #2
ID : 2
Format : MPEG Audio
Format version : Version 1
Format profile : Layer 3
Mode : Joint stereo
Mode extension : MS Stereo
Codec ID : 55
Codec ID/Hint : MP3
Duration : 1h 57mn
Bit rate mode : Constant
Bit rate : 192 Kbps
Channel(s) : 2 channels
Sampling rate : 48.0 KHz
Compression mode : Lossy
Stream size : 161 MiB (14%)
Alignment : Aligned on interleaves
Interleave, duration : 42 ms (1.00 video frame)
Interleave, preload duration : 504 ms
Writing library : LAME3.98.4
General
Complete name : F:\видео 2\The Charles Bukowski Tapes\Buk\The Charles Bukowski Tapes 2 Bagichev.avi
Format : AVI
Format/Info : Audio Video Interleave
File size : 1.12 GiB
Duration : 1h 53mn
Overall bit rate : 1 404 Kbps
Writing application : VirtualDubMod 1.5.10.3 | www.virtualdub-fr.org || (build 2550/release)
Writing library : VirtualDubMod build 2550/release
Video
ID : 0
Format : MPEG-4 Visual
Format profile : Simple@L1
Format settings, BVOP : No
Format settings, QPel : No
Format settings, GMC : No warppoints
Format settings, Matrix : Default (H.263)
Codec ID : DIVX
Codec ID/Info : Project Mayo
Codec ID/Hint : DivX 4
Duration : 1h 53mn
Bit rate : 1 006 Kbps
Width : 720 pixels
Height : 480 pixels
Display aspect ratio : 3:2
Frame rate : 23.976 fps
Color space : YUV
Chroma subsampling : 4:2:0
Bit depth : 8 bits
Scan type : Progressive
Compression mode : Lossy
Bits/(Pixel*Frame) : 0.121
Stream size : 820 MiB (72%)
Writing library : Lavc51.0.0
Audio #1
ID : 1
Format : MPEG Audio
Format version : Version 1
Format profile : Layer 3
Mode : Joint stereo
Codec ID : 55
Codec ID/Hint : MP3
Duration : 1h 53mn
Bit rate mode : Constant
Bit rate : 192 Kbps
Channel(s) : 2 channels
Sampling rate : 48.0 KHz
Compression mode : Lossy
Stream size : 157 MiB (14%)
Alignment : Aligned on interleaves
Interleave, duration : 42 ms (1.00 video frame)
Interleave, preload duration : 504 ms
Audio #2
ID : 2
Format : MPEG Audio
Format version : Version 1
Format profile : Layer 3
Mode : Joint stereo
Mode extension : MS Stereo
Codec ID : 55
Codec ID/Hint : MP3
Duration : 1h 53mn
Bit rate mode : Constant
Bit rate : 192 Kbps
Channel(s) : 2 channels
Sampling rate : 48.0 KHz
Compression mode : Lossy
Stream size : 157 MiB (14%)
Alignment : Aligned on interleaves
Interleave, duration : 42 ms (1.00 video frame)
Interleave, preload duration : 504 ms

Скриншот c названием фильма

Скриншоты

[teatrix.ru].t22124.torrent 
Торрент: Зарегистрирован [ 2016-03-20 12:43 ] · 2E36B29DF2D0494C9B0ED49B7C3E2698EF543426

Скачать .torrent

Скачать

12 KB

Статус: проверено
Скачан: 1 раз
Размер: 2.27 GB
terms.php



Показать сообщения:    

Текущее время: 10-Дек 04:10

Часовой пояс: UTC + 3


Вы не можете начинать темы
Вы не можете отвечать на сообщения
Вы не можете редактировать свои сообщения
Вы не можете удалять свои сообщения
Вы не можете голосовать в опросах
Вы не можете прикреплять файлы к сообщениям
Вы можете скачивать файлы