Братья Стругацкие. Дети Полудня (Валерий Ткачёв) [2013, Документальный, Биографический, IPTVRip]


Статистика раздачи [Обновить пиров]
Размер:  502 MB   |    Зарегистрирован:  8 месяцев 22 дня   |    Скачан:  0 раз

Полного источника не было: Никогда

 
   
 
 
 

[Цитировать]

Братья Стругацкие. Дети Полудня Дата/Год выпуска: 2013
Страна: Россия
Жанр: Документальный, Биографический
Продолжительность: 00:39:02
Перевод: Не требуется
Русские субтитры: нет
Оригинальная аудиодорожка: русский
Режиссери автор сценария: Валерий Ткачёв
Телеканал: Культура
Описание:
Они придумали страну Полудня, где люди живут в гармонии с собой, где царит социальный рай, где человеку, свободно мыслящему, не нужна сдерживающая сила внешней власти. Братья Стругацкие стали выразителями чаяний поколения, рожденного в войну и возмужавшего после ХХ съезда. "Примерно к ХХII съезду партии мы поняли, что имеем дело с бандой жлобов и негодяев во главе страны. Но вера в правоту дела социализма и коммунизма сохранялась у нас очень долго. "Оттепель" способствовала сохранению этой веры - нам казалось, что наконец наступило такое время, когда можно говорить правду, и ничего за это не будет, страна становится честной, чистой", - говорил Борис Стругацкий.
По их произведениям было поставлено 9 фильмов. И каких! "Сталкер", "Трудно быть Богом", "Пылающий остров", "Письма мертвого человека". Со Стругацкими работали лучшие режиссеры отечественного кино - Андрей Тарковский, Алексей Герман.
В фильм включено одно из последних интервью Алексея Германа. Также в картине принимают участие: режиссеры Федор Бондарчук и Константин Лопушанский, писатели Дмитрий Быков и Геннадий Прашкевич, актер Леонид Ярмольник и космонавт Георгий Гречко.
В фильме использованы уникальные кадры и аудиозаписи выступления Стругацких на творческих вечерах.
Сэмпл
качество: IPTVRip
формат: AVI
Видео: 720x400 (1.80:1), 25 fps, XviD build 73 ~ 1596 kbps avg, 0.22 bit/pixel
Аудио: 48 kHz, MPEG Layer 3, 2 ch, ~192.00 kbps avg

MediaInfo

General
Complete name : D:\#Torrents\Doc_Video\Братья Стругацкие. Дети Полудня (2013) IPTVRip by Черник Rutracker.avi
Format : AVI
Format/Info : Audio Video Interleave
File size : 502 MiB
Duration : 39mn 1s
Overall bit rate : 1 798 Kbps
Writing application : VirtualDubMod 1.5.10.3 | www.virtualdub-fr.org || (build 2550/release)
Writing library : VirtualDubMod build 2550/release
Video
ID : 0
Format : MPEG-4 Visual
Format profile : Advanced Simple@L5
Format settings, BVOP : 2
Format settings, QPel : No
Format settings, GMC : No warppoints
Format settings, Matrix : Default (H.263)
Codec ID : XVID
Codec ID/Hint : XviD
Duration : 39mn 1s
Bit rate : 1 596 Kbps
Width : 720 pixels
Height : 400 pixels
Display aspect ratio : 16:9
Frame rate : 25.000 fps
Color space : YUV
Chroma subsampling : 4:2:0
Bit depth : 8 bits
Scan type : Progressive
Compression mode : Lossy
Bits/(Pixel*Frame) : 0.222
Stream size : 446 MiB (89%)
Writing library : XviD 73
Audio
ID : 1
Format : MPEG Audio
Format version : Version 1
Format profile : Layer 3
Codec ID : 55
Codec ID/Hint : MP3
Duration : 39mn 1s
Bit rate mode : Constant
Bit rate : 192 Kbps
Channel(s) : 2 channels
Sampling rate : 48.0 KHz
Compression mode : Lossy
Stream size : 53.6 MiB (11%)
Alignment : Aligned on interleaves
Interleave, duration : 40 ms (1.00 video frame)
Interleave, preload duration : 504 ms
Writing library : LAME3.99r
Encoding settings : -m s -V 4 -q 2 -lowpass 18.6 -b 192

Скриншоты

[teatrix.ru].t22125.torrent 
Торрент: Зарегистрирован [ 2016-03-20 12:43 ] · 41C018E21A49E89B00B2D2251AB75630B34588E2

Скачать .torrent

Скачать

20 KB

Статус: проверено
Скачан: 0 раз
Размер: 502 MB
terms.php



Быстрый ответ

Имя:

      
Для отправки сообщений необходимо включить JavaScript
Показать сообщения:    

Текущее время: 11-Дек 14:57

Часовой пояс: UTC + 3


Вы можете начинать темы
Вы можете отвечать на сообщения
Вы не можете редактировать свои сообщения
Вы не можете удалять свои сообщения
Вы не можете голосовать в опросах
Вы не можете прикреплять файлы к сообщениям
Вы можете скачивать файлы