Рихард Вагнер - Риенци, последний трибун / Richard Wagner - Rienzi, der Letzte der Tribunen (Pinchas Steinberg / Jorge Lavelli) [2012, Opera, BDRip-AVC 1080] Sub (English, French, German)


 

[Цитировать]

Richard Wagner - Rienzi, der Letzte der Tribunen
Рихард ВАГНЕР - РИЕНЦИ, последний трибун
____________________________________________________________________________
Год выпуска: 2013
Лейбл: Opus Arte
Страна-производитель: France
Жанр: Opera
Продолжительность: 231 min
Язык: German
Субтитры: English, French, German
Режиссер/Хореограф: Jorge Lovelli
Исполнители:
Rienzi – Torsten Kerl
Irene – Marika Schönberg
Adriano – Daniela Sindram
Colonna – Richard Wiegold
Orsini – Stefan Heidemann
Cardinal Orvieto – Robert Bork
Baroncelli – Marc Heller
Cecco del Vecchio – Leonardo Neiva
Peace Messenger – Jennifer O’Loughlin
Toulouse Capitol Chorus
Accademia d’Arti e Mestieri dello Spettacolo Teatro alla Scala Chorus
Toulouse Capitol National Orchestra
Pinchas Steinberg, conductor
Recorded live at Théâtre du Capitole, Toulouse, October 2012
Треклист: Opéra en 5 actes
Качество видео: BDRip-AVC
Формат/Контейнер: MKV
Видео кодек: H.264
Аудио кодек: AC3, DTS
Видео поток: 1920x1080, 8000 kbps, 29.970 fps
Аудио поток 1: AC3 224 Kbps, 48.0 KHz, 2 ch
Аудио поток 2: DTS 1509 Kbps, 48.0 KHz, 6 ch

Скриншоты

Mediainfo

General
Unique ID                                : 125808234544582252590668680770988341686 (0x5EA5C8DC97F2863FDFFFA298C2DCF9B6)
Complete name                            : Wagner - Rienzi (Steinberg, Capitole LaScala) 1080\Rienzi (Capitole-LaScala,2013)_Steinberg.mkv
Format                                   : Matroska
Format version                           : Version 2
File size                                : 12.0 GiB
Duration                                 : 2h 56mn
Overall bit rate                         : 9 756 Kbps
Writing application                      : HandBrake 0.10.1 2015030800
Writing library                          : Lavf55.12.0
[br]
Video
ID                                       : 1
Format                                   : AVC
Format/Info                              : Advanced Video Codec
Format profile                           : High@L4
Format settings, CABAC                   : Yes
Format settings, ReFrames                : 4 frames
Codec ID                                 : V_MPEG4/ISO/AVC
Duration                                 : 2h 56mn
Bit rate                                 : 8 000 Kbps
Width                                    : 1 920 pixels
Height                                   : 1 080 pixels
Display aspect ratio                     : 16:9
Frame rate mode                          : Constant
Frame rate                               : 29.970 fps
Color space                              : YUV
Chroma subsampling                       : 4:2:0
Bit depth                                : 8 bits
Scan type                                : Progressive
Bits/(Pixel*Frame)                       : 0.129
Stream size                              : 9.63 GiB (80%)
Writing library                          : x264 core 142 r2479 dd79a61
Encoding settings                        : cabac=1 / ref=2 / deblock=1:0:0 / analyse=0x3:0x113 / me=hex / subme=4 / psy=1 / psy_rd=1.00:0.00 / mixed_ref=0 / me_range=16 / chroma_me=1 / trellis=1 / 8x8dct=1 / cqm=0 / deadzone=21,11 / fast_pskip=1 / chroma_qp_offset=0 / threads=9 / lookahead_threads=2 / sliced_threads=0 / nr=0 / decimate=1 / interlaced=0 / bluray_compat=0 / constrained_intra=0 / bframes=3 / b_pyramid=2 / b_adapt=1 / b_bias=0 / direct=1 / weightb=1 / open_gop=0 / weightp=1 / keyint=300 / keyint_min=30 / scenecut=40 / intra_refresh=0 / rc_lookahead=20 / rc=abr / mbtree=1 / bitrate=8000 / ratetol=1.0 / qcomp=0.60 / qpmin=0 / qpmax=69 / qpstep=4 / ip_ratio=1.40 / aq=1:1.00
Default                                  : Yes
Forced                                   : No
Color range                              : Limited
Color primaries                          : BT.709
Transfer characteristics                 : BT.709
Matrix coefficients                      : BT.709
[br]
Audio #1
ID                                       : 2
Format                                   : AC-3
Format/Info                              : Audio Coding 3
Mode extension                           : CM (complete main)
Format settings, Endianness              : Big
Codec ID                                 : A_AC3
Duration                                 : 2h 56mn
Bit rate mode                            : Constant
Bit rate                                 : 224 Kbps
Channel(s)                               : 2 channels
Channel positions                        : Front: L R
Sampling rate                            : 48.0 KHz
Compression mode                         : Lossy
Delay relative to video                  : 27ms
Stream size                              : 282 MiB (2%)
Title                                    : Stereo
Language                                 : German
Default                                  : Yes
Forced                                   : No
[br]
Audio #2
ID                                       : 3
Format                                   : DTS
Format/Info                              : Digital Theater Systems
Mode                                     : 16
Format settings, Endianness              : Big
Codec ID                                 : A_DTS
Duration                                 : 2h 56mn
Bit rate mode                            : Constant
Bit rate                                 : 1 509 Kbps
Channel(s)                               : 6 channels
Channel positions                        : Front: L C R, Side: L R, LFE
Sampling rate                            : 48.0 KHz
Bit depth                                : 24 bits
Compression mode                         : Lossy
Stream size                              : 1.86 GiB (15%)
Title                                    : Surround
Language                                 : German
Default                                  : No
Forced                                   : No



Показать сообщения:    

Текущее время: 11-Дек 16:47

Часовой пояс: UTC + 3


Вы не можете начинать темы
Вы не можете отвечать на сообщения
Вы не можете редактировать свои сообщения
Вы не можете удалять свои сообщения
Вы не можете голосовать в опросах
Вы не можете прикреплять файлы к сообщениям
Вы не можете скачивать файлы