(Medieval) Alfonso X el Sabio: Cantigas de Burgos (Musica Antigua, dir. Eduardo Paniagua) - 2008, WavPack (image+.cue) lossless


 

[Цитировать]

Cantigas de Burgos
Alfonso X el Sabio 1221-1284
Eduardo Paniagua
Жанр: Medieval
Страна-производитель диска: Spain
Год издания диска: 2008
Издатель (лейбл): Pneuma
Номер по каталогу: PN-1080
Дата записи: 2008
Аудиокодек: WavPack
Тип рипа: image+.cue
Битрейт аудио: lossless
Продолжительность: 57:03
Источник: собственный рип
Наличие сканов в содержимом раздачи: да

Треклист

1. CSM 242: El Cantero de Castrogeriz «O que no coraçon d' ome» [6:42]
2. CSM 249: La Caída del Cantero de Castrogeriz «Aquel que de voontade» [7:38]
3. CSM 266: La Viga de Madera de Castrogeriz «De muitas guisas miragres» [6:09]
4. CSM 373/267: Entre las Olas del Mar Cantábrico (instrumental) [3:35]
5. CSM 252: Salvados de la Arena en Castrogeriz «Tan gran poder a ssa Madre» [8:02]
6. CSM 361: La Imagen del Monasterio de las Huelgas «Null' ome per ren» [6:23]
7. CSM 303: La Niña del Monasterio de las Huelgas «Por fol tenno quen na Virgen» [6:13]
8. CSM 274: El Fraile de Burgos «Poi-lo pecador punnar» [12:20]
CSM: Cantiga de Santa María (Numeradas por W. Mettmann)

Исполнители

MÚSICA ANTIGUA. Director: Eduardo Paniagua
Cesar Carazo: Canto y viola
Luis Antonio Muñoz: Canto y fídula
Samuel Cruz: Canto contratenor
Felipe Sánchez: Guitarra medieval, cítola y vihuela de péñola
Javier Colbe: Órgano de mano y campanil
Jaime Muñoz: Bombarda, chalumeau, axabeba, cálamo y flabiol
David Mayoral: Darbuga, dumbek, daf, pandereta y cántara
Eduardo Paniagua: Salterio, qanun, flautas dulces, tambor, tar y gong

log EAC

Exact Audio Copy V0.99 prebeta 4 from 23. January 2008
Отчёт EAC об извлечении, выполненном 8. августа 2009, 20:51
Eduardo Paniagua / Alfonso X el Sabio: Cantigas de Burgos
Дисковод: PIONEER DVD-RW DVR-112D Adapter: 0 ID: 1
Режим чтения : Достоверность
Использование точного потока : Да
Отключение кэша аудио : Да
Использование указателей C2 : Нет
Коррекция смещения при чтении : 48
Способность читать области Lead-in и Lead-out : Нет
Заполнение пропущенных сэмплов тишиной : Да
Удаление блоков с тишиной в начале и конце : Нет
При вычислениях CRC использовались нулевые сэмплы : Да
Интерфейс : Встроенный Win32-интерфейс для Win NT/2000
Выходной формат : Внутренние WAV-операции
Формат сэмплов : 44.100 Гц; 16 бит; стерео
TOC извлечённого CD
Трек | Старт | Длительность | Начальный сектор | Конечный сектор
---------------------------------------------------------------------
1 | 0:00.00 | 6:42.26 | 0 | 30175
2 | 6:42.26 | 7:38.22 | 30176 | 64547
3 | 14:20.48 | 6:09.01 | 64548 | 92223
4 | 20:29.49 | 3:35.02 | 92224 | 108350
5 | 24:04.51 | 8:02.15 | 108351 | 144515
6 | 32:06.66 | 6:23.24 | 144516 | 173264
7 | 38:30.15 | 6:13.22 | 173265 | 201261
8 | 44:43.37 | 12:20.13 | 201262 | 256774
Характеристики диапазона извлечения и сообщения об ошибках
Выбранный диапазон
Имя файла C:\Documents and Settings\Индра\Мои документы\Моя музыка\Eduardo Paniagua - Cantigas de Burgos.wav
Пиковый уровень 98.1 %
Качество диапазона 100.0 %
CRC теста AD3C2904
CRC копии AD3C2904
Копирование... OK
Ошибок не произошло
AccurateRip: сводка
Трек 1 нет в базе данных
Трек 2 нет в базе данных
Трек 3 нет в базе данных
Трек 4 нет в базе данных
Трек 5 нет в базе данных
Трек 6 нет в базе данных
Трек 7 нет в базе данных
Трек 8 нет в базе данных
Ни одного трека нет в базе AccurateRip
Конец отчёта

Audiochecker

AUDIOCHECKER v2.0 beta (build 457) - by Dester - opdester@freemail.hu
~~~~~~~~~~~~~~~~~~~~~~~~~~~~~~~~~~
Начато: суббота, 25. 07. 2015. - 17:36.12
Найдено файлов: 1
1 -===- C:\Documents and Settings\Agni\Мои документы\Foobar\Eduardo Paniagua - Cantigas de Burgos.wav
Заключение: этот трек - CDDA с вероятностью 100%
Завершено: суббота, 25. 07. 2015. - 17:38.12 (Время операции: 0:01.59)

Audiospectre




Показать сообщения:    

Текущее время: 08-Дек 09:06

Часовой пояс: UTC + 3


Вы не можете начинать темы
Вы не можете отвечать на сообщения
Вы не можете редактировать свои сообщения
Вы не можете удалять свои сообщения
Вы не можете голосовать в опросах
Вы не можете прикреплять файлы к сообщениям
Вы не можете скачивать файлы