(Medieval) Alfonso X el Sabio: Cantigas de Alemania (Musica Antigua, dir. Eduardo Paniagua) - 2008, WavPack (image+.cue) lossless


 

[Цитировать]

Cantigas de Alemania
Alfonso X el Sabio 1221-1284
Eduardo Paniagua
Жанр: Medieval
Страна-производитель диска: Spain
Год издания диска: 2008
Издатель (лейбл): Pneuma
Номер по каталогу: PN-1090
Дата записи: 2008
Аудиокодек: WavPack
Тип рипа: image+.cue
Битрейт аудио: lossless
Продолжительность: 58:38
Источник: собственный рип
Наличие сканов в содержимом раздачи: да

Треклист

1. CSM 14: El Dominico de San Pedro de Colonia «Par Deus muit'é gran razon» [7:20]
2. CSM 42: El Anillo y la Estatua «A Virgen mui gloriosa» [13:12]
3. CSM 299: Orden de Santa María de España (instrumental) [4:38]
4. CSM 294: La Tahura Alemana en Puglia «Non é mui gran maravilla» [9:06]
5. CSM 149: Esceptico de la Eucaristía «Fol é a desmesura» [9:29]
6. CSM 95: Conde Abrán Ermitaño «Quena os servos da Virgen» [14:54]
CSM: Cantiga de Santa María (Numeradas por W. Mettmann)

Исполнители

MÚSICA ANTIGUA. Director: Eduardo Paniagua
Cesar Carazo: Canto y viola
Luis Antonio Muñoz: Canto barítono
Samuel Cruz: Canto contratenor
Felipe Sánchez: Vihuela de péñola
Javier Colbe: Órgano de mano y campanil
Jaime Muñoz: Bombarda, chalumeau, axabeba y cálamo
David Mayoral: Darbuga, dumbek, cántara, pandereta y cascabeles
Eduardo Paniagua: Salterio, qanun, flautas dulces, tambor y naqaras

log EAC

Exact Audio Copy V0.99 prebeta 4 from 23. January 2008
Отчёт EAC об извлечении, выполненном 1. августа 2009, 22:25
Eduardo Paniagua / Cantigas de Alemania
Дисковод: PIONEER DVD-RW DVR-112D Adapter: 0 ID: 1
Режим чтения : Достоверность
Использование точного потока : Да
Отключение кэша аудио : Да
Использование указателей C2 : Нет
Коррекция смещения при чтении : 48
Способность читать области Lead-in и Lead-out : Нет
Заполнение пропущенных сэмплов тишиной : Да
Удаление блоков с тишиной в начале и конце : Нет
При вычислениях CRC использовались нулевые сэмплы : Да
Интерфейс : Встроенный Win32-интерфейс для Win NT/2000
Выходной формат : Внутренние WAV-операции
Формат сэмплов : 44.100 Гц; 16 бит; стерео
TOC извлечённого CD
Трек | Старт | Длительность | Начальный сектор | Конечный сектор
---------------------------------------------------------------------
1 | 0:00.00 | 7:20.19 | 0 | 33018
2 | 7:20.19 | 13:11.47 | 33019 | 92390
3 | 20:31.66 | 4:38.25 | 92391 | 113265
4 | 25:10.16 | 9:05.42 | 113266 | 154182
5 | 34:15.58 | 9:28.58 | 154183 | 196840
6 | 43:44.41 | 14:53.69 | 196841 | 263884
Характеристики диапазона извлечения и сообщения об ошибках
Выбранный диапазон
Имя файла C:\Documents and Settings\Индра\Мои документы\Моя музыка\Eduardo Paniagua - Cantigas de Alemania.wav
Пиковый уровень 98.1 %
Качество диапазона 100.0 %
CRC теста 5F003D84
CRC копии 5F003D84
Копирование... OK
Ошибок не произошло
AccurateRip: сводка
Трек 1 нет в базе данных
Трек 2 нет в базе данных
Трек 3 нет в базе данных
Трек 4 нет в базе данных
Трек 5 нет в базе данных
Трек 6 нет в базе данных
Ни одного трека нет в базе AccurateRip
Конец отчёта

Audiochecker

AUDIOCHECKER v2.0 beta (build 457) - by Dester - opdester@freemail.hu
~~~~~~~~~~~~~~~~~~~~~~~~~~~~~~~~~~
Начато: суббота, 25. 07. 2015. - 17:21.43
Найдено файлов: 1
1 -===- C:\Documents and Settings\Agni\Мои документы\Foobar\Eduardo Paniagua - Cantigas de Alemania.wav
Заключение: этот трек - CDDA с вероятностью 100%
Завершено: суббота, 25. 07. 2015. - 17:23.44 (Время операции: 0:02.00)

Audiospectre




Показать сообщения:    

Текущее время: 10-Дек 00:24

Часовой пояс: UTC + 3


Вы не можете начинать темы
Вы не можете отвечать на сообщения
Вы не можете редактировать свои сообщения
Вы не можете удалять свои сообщения
Вы не можете голосовать в опросах
Вы не можете прикреплять файлы к сообщениям
Вы не можете скачивать файлы