(Medieval) Alfonso X el Sabio: Cantigas de Catalunya (Musica Antigua, dir. Eduardo Paniagua) - 2007, WavPack (image+.cue) lossless


 

[Цитировать]

Cantigas de Catalunya
Abadía de Montserrat
Alfonso X el Sabio 1221-1284
Eduardo Paniagua
Жанр: Medieval
Страна-производитель диска: Spain
Год издания диска: 2007
Издатель (лейбл): Pneuma
Номер по каталогу: PN-980
Дата записи: 2007
Аудиокодек: WavPack
Тип рипа: image+.cue
Битрейт аудио: lossless
Продолжительность: 74:32
Источник: собственный рип
Наличие сканов в содержимом раздачи: да

Треклист

1. CSM 168: La mujer de Lérida. En todo logar á poder [4:29]
2. CSM 113: Las rocas de Montserrat. Por razon tenno d' obedecer [6:23]
3. CSM 194: El caballero envidioso del juglar. Como o nome da Virgen [6:00]
4. CSM 146: El doncel de Albesa. Quen comendar de coraçon [13:13]
5. CSM 48: La fuente de Montserrat. Tanto son da Groriosa [7:51]
6. CSM 311: Muerte por un rayo y resurrección en Montserrat. O que diz que servir [11:47]
7. CSM 57: Los romeros de Montserrat y el salteador. Mui grandes noit' e dia [7:40]
8. CSM 154: La saeta del tahúr de Cataluña. Tan grand' amor á a Virgen [6:41]
9. CSM 312: Holgar con su amiga. Non conven que seja feita [10:27]
CSM: Cantiga de Santa María (Numeradas por W. Mettmann)

Исполнители

MÚSICA ANTIGUA. Director: Eduardo Paniagua
Cesar Carazo: Canto y viola
Luis Antonio Muñoz: Canto y fídula
Felipe Sánchez: Laúd, cítola y vihuela de péñola
Jaime Muñoz: Tarota, cornamusa, gaida, axabeba, flabiol y tamboril
David Mayoral: Darbuga, dumbek, daf y pandereta
Eduardo Paniagua: Salterio, flautas dulces, campanil, darbuga, gong, carraca, cascabeles, sonajero y tar

log EAC

Exact Audio Copy V0.99 prebeta 4 from 23. January 2008
Отчёт EAC об извлечении, выполненном 1. августа 2009, 23:14
Eduardo Paniagua / Alfonso X el Sabio: Cantigas de Catalunya
Дисковод: PIONEER DVD-RW DVR-112D Adapter: 0 ID: 1
Режим чтения : Достоверность
Использование точного потока : Да
Отключение кэша аудио : Да
Использование указателей C2 : Нет
Коррекция смещения при чтении : 48
Способность читать области Lead-in и Lead-out : Нет
Заполнение пропущенных сэмплов тишиной : Да
Удаление блоков с тишиной в начале и конце : Нет
При вычислениях CRC использовались нулевые сэмплы : Да
Интерфейс : Встроенный Win32-интерфейс для Win NT/2000
Выходной формат : Внутренние WAV-операции
Формат сэмплов : 44.100 Гц; 16 бит; стерео
TOC извлечённого CD
Трек | Старт | Длительность | Начальный сектор | Конечный сектор
---------------------------------------------------------------------
1 | 0:00.00 | 4:29.26 | 0 | 20200
2 | 4:29.26 | 6:23.18 | 20201 | 48943
3 | 10:52.44 | 5:59.52 | 48944 | 75920
4 | 16:52.21 | 13:13.25 | 75921 | 135420
5 | 30:05.46 | 7:51.02 | 135421 | 170747
6 | 37:56.48 | 11:46.74 | 170748 | 223771
7 | 49:43.47 | 7:40.34 | 223772 | 258305
8 | 57:24.06 | 6:41.02 | 258306 | 288382
9 | 64:05.08 | 10:27.11 | 288383 | 335418
Характеристики диапазона извлечения и сообщения об ошибках
Выбранный диапазон
Имя файла C:\Documents and Settings\Индра\Мои документы\Моя музыка\Eduardo Paniagua - Cantigas de Catalunya.wav
Пиковый уровень 100.0 %
Качество диапазона 99.9 %
CRC теста 4FE8F4E6
CRC копии 4FE8F4E6
Копирование... OK
Ошибок не произошло
AccurateRip: сводка
Трек 1 точное извлечение (доверие 1) [5C54A08A]
Трек 2 точное извлечение (доверие 1) [BC3C4FF5]
Трек 3 точное извлечение (доверие 1) [5CA5C1D9]
Трек 4 точное извлечение (доверие 1) [70360ED8]
Трек 5 точное извлечение (доверие 1) [FDD16B2F]
Трек 6 точное извлечение (доверие 1) [7A476BD3]
Трек 7 точное извлечение (доверие 1) [6C8970FF]
Трек 8 точное извлечение (доверие 1) [1ED85CBD]
Трек 9 точное извлечение (доверие 1) [57375864]
Все треки извлечены точно
Конец отчёта

Audiochecker

AUDIOCHECKER v2.0 beta (build 457) - by Dester - opdester@freemail.hu
~~~~~~~~~~~~~~~~~~~~~~~~~~~~~~~~~~
Начато: суббота, 25. 07. 2015. - 17:41.31
Найдено файлов: 1
1 -===- C:\Documents and Settings\Agni\Мои документы\Foobar\Eduardo Paniagua - Cantigas de Catalunya.wav
Заключение: этот трек - CDDA с вероятностью 100%
Завершено: суббота, 25. 07. 2015. - 17:44.11 (Время операции: 0:02.40)

Audiospectre




Показать сообщения:    

Текущее время: 10-Дек 13:47

Часовой пояс: UTC + 3


Вы не можете начинать темы
Вы не можете отвечать на сообщения
Вы не можете редактировать свои сообщения
Вы не можете удалять свои сообщения
Вы не можете голосовать в опросах
Вы не можете прикреплять файлы к сообщениям
Вы не можете скачивать файлы