(Medieval) Alfonso X el Sabio: Cantigas de Valencia (Musica Antigua, dir. Eduardo Paniagua) - 2006, WavPack (image+.cue) lossless


 

[Цитировать]

Cantigas de Valencia
Alfonso X el Sabio 1221-1284
Eduardo Paniagua
Жанр: Medieval
Страна-производитель диска: Spain
Год издания диска: 2006
Издатель (лейбл): Pneuma
Номер по каталогу: PN-860
Дата записи: 16-17 September 2006
Аудиокодек: WavPack
Тип рипа: image+.cue
Битрейт аудио: lossless
Продолжительность: 63:46
Источник: собственный рип
Наличие сканов в содержимом раздачи: да

Треклист

01. CSM 126: La saeta clavada del hombre de Elche. De toda chaga ben pode guarir [5:28]
02. CSM 189: Combate entre el dragón y el romero de Valencia. Ben pode Santa María [11:56]
03. CSM 211: Las abejas del cirio pascual en Elche. Apostos miragres faz todavia [6:12]
04. CSM 244: La taberna de Laredo. (Instrumental) [3:44]
05. CSM 299: Orden de Santa María de España. De muitas maneiras Santa María [8:40]
06. CSM 129: Herido por una saeta. Murviedro-Sagunto. De todo mal e de toda ferida [5:32]
07. CSM 339: La nave en el mar de Alicante. En quantas guisas os seus acorrer [5:59]
08. CSM 186: Monasterio de Monte Sión. (Instrumental) [2:44]
09. CSM 161: El viento y el pedrisco- Morella. Poder á Santa María, a Sennor de piadade [9:56]
10. CSM 133: La niña salvada de la acequia en Elche. Resurgir pode e face-los seus [3:36]
CSM: Cantiga de Santa María (Numeradas por W. Mettmann)

Исполнители

MÚSICA ANTIGUA • Director: Eduardo Paniagua
Cesar Carazo: Canto y viola
Luis Antonio Muñoz: Canto, fídula y pandero
Jaime Muñoz: Kaval, ajabeba, gaita charra y tamboril, chalumeau, gaita y gaida
Felipe Sánchez: Vihuela de péñola y guitarra medieval
Wafir Sheik: Laúd árabe, pandero, pandereta y darbuka
Eduardo Paniagua: Flautas dulces, campanil, darbuka, tar, carraca, sonajero, platillos, cascabeles, semillas y gong

log EAC

Exact Audio Copy V0.99 prebeta 4 from 23. January 2008
Отчёт EAC об извлечении, выполненном 8. августа 2009, 18:38
Eduardo Paniagua / Alfonso X el Sabio: Cantigas de Valencia
Дисковод: PIONEER DVD-RW DVR-112D Adapter: 0 ID: 1
Режим чтения : Достоверность
Использование точного потока : Да
Отключение кэша аудио : Да
Использование указателей C2 : Нет
Коррекция смещения при чтении : 48
Способность читать области Lead-in и Lead-out : Нет
Заполнение пропущенных сэмплов тишиной : Да
Удаление блоков с тишиной в начале и конце : Нет
При вычислениях CRC использовались нулевые сэмплы : Да
Интерфейс : Встроенный Win32-интерфейс для Win NT/2000
Выходной формат : Внутренние WAV-операции
Формат сэмплов : 44.100 Гц; 16 бит; стерео
TOC извлечённого CD
Трек | Старт | Длительность | Начальный сектор | Конечный сектор
---------------------------------------------------------------------
1 | 0:00.00 | 5:27.39 | 0 | 24563
2 | 5:27.39 | 11:56.09 | 24564 | 78272
3 | 17:23.48 | 6:12.13 | 78273 | 106185
4 | 23:35.61 | 3:44.15 | 106186 | 123000
5 | 27:20.01 | 8:39.56 | 123001 | 161981
6 | 35:59.57 | 5:31.48 | 161982 | 186854
7 | 41:31.30 | 5:59.24 | 186855 | 213803
8 | 47:30.54 | 2:43.67 | 213804 | 226095
9 | 50:14.46 | 9:56.05 | 226096 | 270800
10 | 60:10.51 | 3:35.47 | 270801 | 286972
Характеристики диапазона извлечения и сообщения об ошибках
Выбранный диапазон
Имя файла C:\Documents and Settings\Индра\Мои документы\Моя музыка\Eduardo Paniagua - Cantigas de Valencia.wav
Пиковый уровень 98.1 %
Качество диапазона 100.0 %
CRC теста 993717AE
CRC копии 993717AE
Копирование... OK
Ошибок не произошло
AccurateRip: сводка
Трек 1 точное извлечение (доверие 1) [92522D7D]
Трек 2 точное извлечение (доверие 1) [B8CA0DC5]
Трек 3 точное извлечение (доверие 1) [E3D53C65]
Трек 4 точное извлечение (доверие 1) [2C152D98]
Трек 5 точное извлечение (доверие 1) [C9D75222]
Трек 6 точное извлечение (доверие 1) [04896759]
Трек 7 точное извлечение (доверие 1) [DDA18330]
Трек 8 точное извлечение (доверие 1) [9F0E8FFD]
Трек 9 точное извлечение (доверие 1) [F8892DC9]
Трек 10 точное извлечение (доверие 1) [E745C8DC]
Все треки извлечены точно
Конец отчёта

Audiochecker

AUDIOCHECKER v2.0 beta (build 457) - by Dester - opdester@freemail.hu
~~~~~~~~~~~~~~~~~~~~~~~~~~~~~~~~~~
Начато: суббота, 25. 07. 2015. - 18:01.50
Найдено файлов: 1
1 -===- C:\Documents and Settings\Agni\Мои документы\Foobar\Eduardo Paniagua - Cantigas de Valencia.wav
Заключение: этот трек - CDDA с вероятностью 100%
Завершено: суббота, 25. 07. 2015. - 18:04.05 (Время операции: 0:02.14)

Audiospectre




Показать сообщения:    

Текущее время: 07-Дек 13:37

Часовой пояс: UTC + 3


Вы не можете начинать темы
Вы не можете отвечать на сообщения
Вы не можете редактировать свои сообщения
Вы не можете удалять свои сообщения
Вы не можете голосовать в опросах
Вы не можете прикреплять файлы к сообщениям
Вы не можете скачивать файлы