(Medieval) Alfonso X el Sabio: Cantigas para Viola de Rueda (Musica Antigua, dir. Eduardo Paniagua) - 2005, WavPack (image+.cue) lossless


 

[Цитировать]

Cantigas para Viola de Rueda
Alfonso X el Sabio 1221-1284
Eduardo Paniagua
Жанр: Medieval
Страна-производитель диска: Spain
Год издания диска: 2005
Издатель (лейбл): Pneuma
Номер по каталогу: PN-740
Дата записи: 2004
Аудиокодек: WavPack
Тип рипа: image+.cue
Битрейт аудио: lossless
Продолжительность: 57:14
Источник: собственный рип
Наличие сканов в содержимом раздачи: да

Треклист

01. CSM 68: Rivales en Amores. (Instrumental) [3:12]
Zanfona, salterio, cántaras y gong
02. CSM 77: Santa María de Lugo. «Da que Deus mamou» [5:00]
Canto bajo, coro, zanfona, flautas dulces, salterio, darbuka, dumbek y req, sellas, uñas y sonajero
03. CSM 61: Boca Torcida. (Instrumental) [2:58]
Zanfona, flautas dulces, salterio, dumbek y tamburelo
04. CSM 327: Las Piernas. «Porque ben Santa Maria» [4:51]
Canto soprano y coro, zanfona, gaita, kaval, flauta charra y tamboril, flauta dulce, darbuka, agual, tar y pandereta
05. CSM 74: El Pintor. (Instrumental) [3:46]
Zanfona, flautas dulces, salterio, pandero, darbuka y semillas
06. CSM 92: Clérigo Ciego. «Santa Maria poder á» [3:01]
Canto soprano, flautas búlgaras, cántara, címbalos, pandereta y daf
07. CSM 81: Fuego en el Rostro. (Instrumental) [3:17]
Zanfona, flauta dulce, fhal, salterio, cántaras y naqaras
08. CSM 407: Ciego por el Demonio. «Como o demo confonder» [5:02]
Canto tenor y coro, zanfona, flauta dulce, siringa, ajabeba, cítola, tambor con tensores, carraca y castañuela ibicenca
09. CSM 91: Fuego de San Marcial. (Instrumental) [2:38]
Zanfona, fhal, salterio, daf, uñas y cascabeles
10. CSM 259: Los Juglares. «Santa Maria punna» [4:13]
Canto tenor, zanfona, nay, ajabeba, fhal, darbuka, pandero, sonajas y semillas
11. CSM 71: El Ave María. (Instrumental) [5:48]
Zanfona, salterio, flauta dulce y darbuka
12. CSM 76: El Rapto de la Imagen. «Quenas sas figuras» [6:20]
Canto tenor, coro, zanfona, chirimía, flautas dulces, daf, darbuka, platillos, címbalos, sonajas y cascabeles
13. CSM 62: Bona Dona. (Instrumental) [2:38]
Zanfona, flautas dulces, salterio, carraca, sonajero y gong
14. CSM 72: El Tahúr. «Quen diz mal» [4:32]
Canto tenor, fhal, flauta dulce, laúd, darbuka, pandero y tar
CSM: Cantiga de Santa María (Numeradas por W. Mettmann)

Исполнители

MÚSICA ANTIGUA • Director: Eduardo Paniagua
Henar Alvarez: Canto soprano
Cesar Carazo: Canto tenor
Luis Antonio Muñoz: Canto bajo
Jota Martínez: Zanfona (viola de rueda)
David Mayoral: Darbuka, dumbek, daf, cántaras, tamburelo y req
Invitados:
Enrique Almendros: 4 Gaita, gaita charra y tamboril
Jaime Muñoz: 4 Kaval, 8 ajabeba
Luis Delgado: 6 Cántara, 8 tambor, 14 pandero
Felipe Sánchez: 8 Cítola
Vicente Molino: 10 Nay y ajabeba
Wafir Sheik: 14 Laúd
Eduardo Paniagua: Salterio, flautas dulces, fhal, chirimía, siringa, flautas búlgaras, darbuka, naqaras, pandero, agual, tar, sonajas, pandereta, castañuelas ibicencas, carraca, sonajero, platillos, címbalos, cascabeles, semillas, uñas y gong

log EAC

Exact Audio Copy V0.99 prebeta 4 from 23. January 2008
Отчёт EAC об извлечении, выполненном 1. августа 2009, 21:22
Eduardo Paniagua / Alfonso X el Sabio: Viola de Rueda
Дисковод: PIONEER DVD-RW DVR-112D Adapter: 0 ID: 1
Режим чтения : Достоверность
Использование точного потока : Да
Отключение кэша аудио : Да
Использование указателей C2 : Нет
Коррекция смещения при чтении : 48
Способность читать области Lead-in и Lead-out : Нет
Заполнение пропущенных сэмплов тишиной : Да
Удаление блоков с тишиной в начале и конце : Нет
При вычислениях CRC использовались нулевые сэмплы : Да
Интерфейс : Встроенный Win32-интерфейс для Win NT/2000
Выходной формат : Внутренние WAV-операции
Формат сэмплов : 44.100 Гц; 16 бит; стерео
TOC извлечённого CD
Трек | Старт | Длительность | Начальный сектор | Конечный сектор
---------------------------------------------------------------------
1 | 0:00.00 | 3:11.64 | 0 | 14388
2 | 3:11.64 | 4:59.52 | 14389 | 36865
3 | 8:11.41 | 2:57.70 | 36866 | 50210
4 | 11:09.36 | 4:51.00 | 50211 | 72035
5 | 16:00.36 | 3:45.63 | 72036 | 88973
6 | 19:46.24 | 3:00.57 | 88974 | 102530
7 | 22:47.06 | 3:17.13 | 102531 | 117318
8 | 26:04.19 | 5:01.42 | 117319 | 139935
9 | 31:05.61 | 2:37.66 | 139936 | 151776
10 | 33:43.52 | 4:12.57 | 151777 | 170733
11 | 37:56.34 | 5:47.46 | 170734 | 196804
12 | 43:44.05 | 6:20.27 | 196805 | 225331
13 | 50:04.32 | 2:37.62 | 225332 | 237168
14 | 52:42.19 | 4:31.49 | 237169 | 257542
Характеристики диапазона извлечения и сообщения об ошибках
Выбранный диапазон
Имя файла C:\Documents and Settings\Индра\Мои документы\Моя музыка\Eduardo Paniagua - Viola de Rueda.wav
Пиковый уровень 98.8 %
Качество диапазона 100.0 %
CRC теста 86C9690A
CRC копии 86C9690A
Копирование... OK
Ошибок не произошло
AccurateRip: сводка
Трек 1 точность не определена (достоверность 3) [E6B91991], AccurateRip вернул [AB6CCB62]
Трек 2 точность не определена (достоверность 3) [1DE4DDE8], AccurateRip вернул [6E6BDE16]
Трек 3 точность не определена (достоверность 3) [60B3E8C3], AccurateRip вернул [8E0D83A0]
Трек 4 точность не определена (достоверность 3) [11D9683C], AccurateRip вернул [CE85A2BF]
Трек 5 точность не определена (достоверность 3) [0D77613E], AccurateRip вернул [C7141F7A]
Трек 6 точность не определена (достоверность 3) [F74B357F], AccurateRip вернул [2D7F502C]
Трек 7 точность не определена (достоверность 3) [123CA17B], AccurateRip вернул [332E7E9B]
Трек 8 точность не определена (достоверность 3) [43D98768], AccurateRip вернул [90706F9A]
Трек 9 точность не определена (достоверность 3) [3EA355C4], AccurateRip вернул [E915C698]
Трек 10 точность не определена (достоверность 3) [8C793B6B], AccurateRip вернул [01A6F5CC]
Трек 11 точность не определена (достоверность 3) [A05E58B6], AccurateRip вернул [44597586]
Трек 12 точность не определена (достоверность 3) [B39F1E23], AccurateRip вернул [8DAF328C]
Трек 13 точность не определена (достоверность 3) [B34D314A], AccurateRip вернул [0F594C9D]
Трек 14 точность не определена (достоверность 3) [113D2E17], AccurateRip вернул [C069C194]
Ни один трек не прошёл проверки на точность
В вашей базе может быть иной вариант штамповки диска
Конец отчёта

Audiochecker

AUDIOCHECKER v2.0 beta (build 457) - by Dester - opdester@freemail.hu
~~~~~~~~~~~~~~~~~~~~~~~~~~~~~~~~~~
Начато: суббота, 25. 07. 2015. - 18:32.18
Найдено файлов: 1
1 -===- C:\Documents and Settings\Agni\Мои документы\Foobar\Eduardo Paniagua - Viola de Rueda.wav
Заключение: этот трек - CDDA с вероятностью 100%
Завершено: суббота, 25. 07. 2015. - 18:34.11 (Время операции: 0:01.53)

Audiospectre




Показать сообщения:    

Текущее время: 02-Дек 21:12

Часовой пояс: UTC + 3


Вы не можете начинать темы
Вы не можете отвечать на сообщения
Вы не можете редактировать свои сообщения
Вы не можете удалять свои сообщения
Вы не можете голосовать в опросах
Вы не можете прикреплять файлы к сообщениям
Вы не можете скачивать файлы