Как я потерялся / Как я заблудился / How I Got Lost (Джо Леонард / Joe Leonard) [2009, США, драма, DVB-AVC] DVO (Kino Polska)


Статистика раздачи [Обновить пиров]
Размер:  983 MB   |    Зарегистрирован:  8 месяцев 20 дней   |    Скачан:  0 раз

Полного источника не было: Никогда

 
   
 
 
 

[Цитировать]

Как я потерялся
How I Got Lost- Страна: США
Жанр: драма
Год выпуска: 2009
Продолжительность: 01:24:12Перевод: Профессиональный (двухголосый закадровый) по заказу Kino Polska на производственно-технической базе Студии "Акцент"
Cубтитры: нет
Режиссер: Джо Леонард / Joe Leonard
В ролях: Аарон Стэнфорд / Aaron Stanford (Andrew Peterson), Джейкоб Фишел / Jacob Fishel (Jake Glass), Розмари ДеВитт / Rosemarie DeWitt (Leslie), Николь Вишус / Nicole Vicius (Sarah)
Описание: Спустя два года после трагических событий 9/11, Нью-Йорк всё ещё лишён своего романтического ореола и, кажется, довлеет над своими эмоционально опустошёнными горожанами. Здесь живут лучшие друзья Эндрю и Джек. Эндрю — биржевой маклер на Уолл-cтрит, считающий, что не может реализовать свои таланты. Джек делает в прессе спортивные заметки, а хотел быть писателем. Оба они ощущают потерю смысла жизни. Сбежав из города на автомобиле, друзья попытаются понять, почему всё идёт не так, как хотелось. И, колеся по так непохожей на жизнь в большом городе провинции, вероятно, найдут ответ. Общение с простыми и искренними жителями небольших американских городов позволит Эндрю и Джеку понять, что каждая потеря в жизни даёт шанс начать что-то сначала.
Доп. информация: Filmbox IPTV
Награды: премия Big Apple Film Festival 2009 новому таланту Нью-Йорка (Aaron Stanford); Гран-при жюри Dances With Films 2009; приз "Морской конёк" за лучший полнометражный фильм Moondance International Film Festival 2009; специальный приз жюри за режиссуру Oxford International Film Festival, Ohio, USA 2009; приз лучшему режиссеру Philadelphia FirstGlance Film Festival 2009; Гран-при жюри за лучший полнометражный фильм Red Rock Film Festival, Utah, USA 2009; приз за лучший монтаж ReelHeART International Film Festival 2011; др. награды.

Качество видео: DVB-AVC
Формат видео: MKV
Видео: AVC (H.264), 720x576@1024x576 (16:9), 25 fps, ~1472 kbps avg, 0.142 bit/pixel
Аудио: MPEG Audio 2, 2 ch, 48 kHz, ~128.00 kbps avg

MediaInfo

Общее
Уникальный идентификатор : 178284395313784702076516867173329726961 (0x86205357958E91068BAE1CC04AD0EDF1)
Полное имя : F:\My Torrents 3\[apreder]How_I_Got_Lost(2009)DVB.mkv
Формат : Matroska
Версия формата : Version 2
Размер файла : 983 Мбайт
Продолжительность : 1 ч. 24 м.
Общий поток : 1632 Кбит/сек
Дата кодирования : UTC 2015-08-29 06:08:32
Программа кодирования : mkvmerge v8.3.0 ('Over the Horizon') 64bit
Библиотека кодирования : libebml v1.3.1 + libmatroska v1.4.2
Attachements : cover.jpg / cover_small.jpg
TITLE : How I Got Lost
IMDB : tt1235838
DATE_RELEASED : 2009-04-24
LAW_RATING : 16+
GENRE : Drama
ACTOR : Aaron Stanford, Jacob Fishel, Rosemarie DeWitt, Nicole Vicius
DIRECTOR : Joe Leonard
KEYWORDS : rutracker.org
Видео
Идентификатор : 1
Формат : AVC
Формат/Информация : Advanced Video Codec
Профиль формата : High@L3
Параметр CABAC формата : Да
Параметр ReFrames формата : 3 кадра
Параметр GOP формата : M=1, N=25
Идентификатор кодека : V_MPEG4/ISO/AVC
Продолжительность : 1 ч. 24 м.
Битрейт : 1472 Кбит/сек
Ширина : 720 пикселей
Высота : 576 пикселей
Соотношение сторон : 16:9
Соотношение сторон в оригинале : 16:9
Режим частоты кадров : Постоянный
Частота кадров : 25,000 кадров/сек
Стандарт вещания : PAL
Цветовое пространство : YUV
Субдискретизация насыщенности : 4:2:0
Битовая глубина : 8 бит
Тип развёртки : Прогрессивная
Бит/(Пиксели*Кадры) : 0.142
Размер потока : 886 Мбайт (90%)
Default : Да
Forced : Нет
Аудио
Идентификатор : 2
Формат : MPEG Audio
Версия формата : Version 1
Профиль формата : Layer 2
Идентификатор кодека : A_MPEG/L2
Идентификатор кодека/Подсказка : MP2
Продолжительность : 1 ч. 24 м.
Вид битрейта : Постоянный
Битрейт : 128 Кбит/сек
Каналы : 2 канала
Частота : 48,0 КГц
Метод сжатия : С потерями
Задержка видео : 4 мс.
Размер потока : 77,1 Мбайт (8%)
Язык : Russian
Default : Да
Forced : Нет

Скриншот c названием фильма

Скриншоты


Резервные скриншоты


-
[teatrix.ru].t22135.torrent 
Торрент: Зарегистрирован [ 2016-03-20 12:43 ] · 902726500F10B348FB320A38F03E997F96BC47E8

Скачать .torrent

Скачать

20 KB

Статус: проверено
Скачан: 0 раз
Размер: 983 MB
terms.php



Быстрый ответ

Имя:

      
Для отправки сообщений необходимо включить JavaScript
Показать сообщения:    

Текущее время: 10-Дек 00:20

Часовой пояс: UTC + 3


Вы можете начинать темы
Вы можете отвечать на сообщения
Вы не можете редактировать свои сообщения
Вы не можете удалять свои сообщения
Вы не можете голосовать в опросах
Вы не можете прикреплять файлы к сообщениям
Вы можете скачивать файлы