[TR24][SA][OF] Antonio Vivaldi - Concerti per archi e continuo, RV 123, 127, 717, 119, 149, 114, 156, 158, 157, 163, 151 (I Musici) - 2011 (Classical)


Статистика раздачи [Обновить пиров]
Размер:  1017 MB   |    Зарегистрирован:  8 месяцев 15 дней   |    Скачан:  0 раз

Полного источника не было: Никогда

 
   
 
 
 

[Цитировать]

Antonio Vivaldi - Concerti per archi e continuo
Год издания: 2012
Жанр: Classical
Издатель (лейбл): Fonè Records
Продолжительность: 00:57:03
Наличие сканов: да
Исполнители:
I Musici

Треклист:

Concerto in Re Magg. RV 123
01. Allegro (01:59)
02. Adagio (01:34)
03. Allegro (02:15)
Concerto in re min. RV 127
04. Allegro (01:22)
05. Largo (01:32)
06. Allegro (01:02)
Sinfonia in Do Magg. dal 'Giustino' RV 717
07. Allegro (02:17)
08. Andante (02:20)
09. Allegro (00:46)
Concerto in do min. RV 119
10. Allegro (02:09)
11. Largo (01:22)
12. Allegro (01:19)
Sinfonia in Sol Magg. RV 149 'Il coro delle Muse'
13. Allegro molto (01:38)
14. Andante (01:19)
15. Allegro (02:39)
Concerto in Do Magg. RV 114
16. Allegro (02:22)
17. Adagio (00:20)
18. Ciaccona (Allegro, ma non troppo) (03:04)
Concerto in sol min. RV 156
19. Allegro (02:28)
20. Adagio (01:18)
21. Allegro (01:32)
Concerto in La Magg. RV 158
22. Allegro molto (02:21)
23. Andante molto (02:11)
24. Allegro (02:48)
Concerto in sol min. RV 157
25. Allegro (01:47)
26. Largo (01:21)
27. Allegro (01:57)
Concerto in Sib Magg. RV 163 'Conca'
28. Allegro molto moderato - Allegro molto - Tempo I - Allegro molto (02:29)
29. Andante (molto) (00:48)
30. Allegro (00:54)
Concerto in Sol Magg. RV 151 'alla Rustica'
31. Presto (01:13)
32. Adagio (01:08)
33. Allegro (01:29)
-Контейнер: FLAC (*.flac)
Тип рипа: tracks
Разрядность: 24bit / 88,2kHz
Количество каналов: 2.0-

Динамический диапазон - DR

foobar2000 1.3.2 / Замер динамического диапазона (DR) 1.1.1
Дата отчёта: 2015-08-29 10:55:02
--------------------------------------------------------------------------------
Анализ: I Musici / Antonio Vivaldi - Concerti per archi e continuo (I Musici)
--------------------------------------------------------------------------------
DR Пики RMS Продолжительность трека
--------------------------------------------------------------------------------
DR13 -4.45 дБ -20.39 дБ 1:59 01-Concerto in Re Magg. RV 123 - Allegro
DR12 -11.50 дБ -29.76 дБ 1:34 02-Adagio
DR13 -4.10 дБ -21.01 дБ 2:15 03-Allegro
DR13 -4.86 дБ -20.81 дБ 1:22 04-Concerto in re min. RV 127 - Allegro
DR13 -10.04 дБ -29.23 дБ 1:32 05-Largo
DR12 -4.13 дБ -20.42 дБ 1:02 06-Allegro
DR14 -2.49 дБ -19.97 дБ 2:17 07-Sinfonia in Do Magg. dal 'Giustino' RV 717 - Allegro
DR13 -9.31 дБ -26.93 дБ 2:20 08-Andante
DR14 -4.44 дБ -22.53 дБ 0:46 09-Allegro
DR13 -1.44 дБ -17.71 дБ 2:09 10-Concerto in do min. RV 119 - Allegro
DR14 -4.30 дБ -24.77 дБ 1:22 11-Largo
DR14 -4.39 дБ -20.44 дБ 1:19 12-Allegro
DR13 -4.42 дБ -20.60 дБ 1:38 13-Sinfonia in Sol Magg. RV 149 'Il coro delle Muse' - Allegro molto
DR15 -8.17 дБ -29.02 дБ 1:19 14-Andante
DR14 -2.23 дБ -20.67 дБ 2:39 15-Allegro
DR16 -0.64 дБ -20.40 дБ 2:22 16-Concerto in Do Magg. RV 114 - Allegro
DR10 -16.44 дБ -32.81 дБ 0:20 17-Adagio
DR15 -1.89 дБ -23.67 дБ 3:04 18-Ciaccona (Allegro, ma non troppo)
DR15 -2.95 дБ -20.73 дБ 2:28 19-Concerto in sol min. RV 156 - Allegro
DR11 -12.12 дБ -26.28 дБ 1:18 20-Adagio
DR13 -1.33 дБ -19.44 дБ 1:32 21-Allegro
DR13 -4.71 дБ -20.87 дБ 2:21 22-Concerto in La Magg. RV 158 - Allegro molto
DR13 -7.38 дБ -25.79 дБ 2:11 23-Andante molto
DR13 -4.05 дБ -20.95 дБ 2:48 24-Allegro
DR13 -6.06 дБ -22.23 дБ 1:47 25-Concerto in sol min. RV 157 - Allegro
DR12 -10.84 дБ -26.31 дБ 1:21 26-Largo
DR14 -4.32 дБ -20.11 дБ 1:57 27-Allegro
DR15 -3.22 дБ -22.60 дБ 2:29 28-Concerto in Sib Magg. RV 163 'Conca' - Allegro molto moderato - Allegro molto - Tempo I - Allegro molto
DR13 -14.36 дБ -30.32 дБ 0:48 29-Andante (molto)
DR15 -2.95 дБ -22.15 дБ 0:54 30-Allegro
DR13 -3.98 дБ -19.86 дБ 1:13 31-Concerto in Sol Magg. RV 151 'alla Rustica' - Presto
DR15 -6.10 дБ -27.19 дБ 1:08 32-Adagio
DR14 -0.92 дБ -18.07 дБ 1:29 33-Allegro
--------------------------------------------------------------------------------
Количество треков: 33
Реальные значения DR: DR13
Частота: 88200 Гц
Каналов: 2
Разрядность: 24
Битрейт: 2549 кбит/с
Кодек: FLAC
================================================================================
[teatrix.ru].t22137.torrent 
Торрент: Зарегистрирован [ 2016-03-20 12:43 ] · 9B1DEDDCC1D4D6AA3C3B05DEC8AC3A416C166F42

Скачать .torrent

Скачать

23 KB

Статус: проверено
Скачан: 0 раз
Размер: 1017 MB
terms.php



Быстрый ответ

Имя:

      
Для отправки сообщений необходимо включить JavaScript
Показать сообщения:    

Текущее время: 05-Дек 01:16

Часовой пояс: UTC + 3


Вы можете начинать темы
Вы можете отвечать на сообщения
Вы не можете редактировать свои сообщения
Вы не можете удалять свои сообщения
Вы не можете голосовать в опросах
Вы не можете прикреплять файлы к сообщениям
Вы можете скачивать файлы