Энгельберт Хумпердинк - Гензель и Гретель (театр Анальтише Дессау; Ноак) / Engelbert Humperdinck - Hansel und Gretel (Anhaltisches Theater Dessau; Felsenstein, Frank; Noack, Marschall, Kuntschew, Petersamer, Kaminskaite) [2007, Opera, Blu-ray 1080i]


 

[Цитировать]

Энгельберт Хумпердинк - Гензель и Гретель / Engelbert Humperdinck - Hansel und Gretel
Год выпуска: 2007
Лейбл: Arthaus Musik, Anhaltisches Theater Dessau
Страна-производитель: США
Жанр: Opera
Продолжительность: 01:39:50
Язык: Немецкий
Субтитры: Английские, французские, немецкие, итальянские, испанские, японские
Режиссер: Johannes Felsenstein (Иоганнес Фельзенштайн)
Дирижер: Markus L. Frank (Маркус Франк)
Исполнители:
Sabine Noack (Сабина Ноак) - Hänsel,
Cornelia Marschall (Корнелия Маршалл) - Gretel,
Ludmil Kuntschew (Людмил Кунчев) - Peter / The Witch,
Alexandra Petersamer (Александра Петерсамер) - Gertrud,
Viktorija Kaminskaite (Виктория Каминскайте) - Sawman / Dewman
Orchestra and Chorus of the Royal Opera House (оркестр и хор английской Королевской оперы)
Описание: Гензель и его сестра Гретель потерялись в дремучем лесу. Вскоре они находят дом из ржаного хлеба с крышей из пряников и окнами из сахара и решают им полакомиться. В это же время из дома выходит злая колдунья, она приглашает детей к себе, угощает яблоками и оладьями. Но дети не догадывались, что на самом деле, колдунья хотела съесть их.

Оригинальное описание

"Johannes Felsenstein portrays abject poverty in moving images and depicts the strength of imagination with which Hansel and Gretel dream of a colorful world in which their mother and father care lovingly for them. The Christmas Eve scene with the witch game is reality for them, but remains an utopian dream. Despite the uniqueness of this interpretation of the story, it is both logical and consistent and makes it a piece of realist music theatre not just for children."
Recorded live at the Anhaltisches Theater Dessau, 2007.
Дополнительные материалы: анонсы дисков с операми.
Об опере
Качество видео: Blu-ray
Формат/Контейнер: BDMV
Видео кодек: MPEG4
Аудио кодек: LPCM, DTS
Видео поток: MPEG-4 Video, 1920x1080, 20450 kbps, 29.970 fps
Аудио поток: LPCM, 1536 kbps, 48 kHz, 2 ch. DTS-HD MA, 2519 kbps, 48 kHz, 8 ch

BD-Info

DISC INFO:
Disc Title: Хумпердинк Энгельберт - Гензель и Гретель (Anhaltisches Theater Dessau) (2007) (Blu-ray 1080i, AVC, DTS-HD 7.1)
Disc Size: 21 103 924 560 bytes
Protection: AACS
BD-Java: No
BDInfo: 0.5.8
PLAYLIST REPORT:
Name: 00000.MPLS
Length: 1:39:50.351 (h:m:s.ms)
Size: 19 655 970 816 bytes
Total Bitrate: 26,25 Mbps
VIDEO:
Codec Bitrate Description
----- ------- -----------
MPEG-4 AVC Video 20450 kbps 1080i / 29,970 fps / 16:9 / High Profile 4.1
AUDIO:
Codec Language Bitrate Description
----- -------- ------- -----------
LPCM Audio German 1536 kbps 2.0 / 48 kHz / 1536 kbps / 16-bit
DTS-HD Master Audio German 2519 kbps 7.1 / 48 kHz / 2519 kbps / 16-bit (DTS Core: 5.1 / 48 kHz / 1509 kbps / 16-bit)
SUBTITLES:
Codec Language Bitrate Description
----- -------- ------- -----------
Presentation Graphics German 20,146 kbps
Presentation Graphics English 20,258 kbps
Presentation Graphics French 20,084 kbps
Presentation Graphics Spanish 20,116 kbps
Presentation Graphics Italian 18,778 kbps
Presentation Graphics Japanese 14,161 kbps
FILES:
Name Time In Length Size Total Bitrate
---- ------- ------ ---- -------------
00000.M2TS 0:00:00.000 1:39:35.970 19 654 846 464 26 312
00006.M2TS 1:39:35.970 0:00:14.047 1 112 064 633
00010.M2TS 1:39:50.017 0:00:00.333 12 288 295
Семпл

Скриншоты


Скриншоты доп. материалов




Показать сообщения:    

Текущее время: 08-Дек 21:11

Часовой пояс: UTC + 3


Вы не можете начинать темы
Вы не можете отвечать на сообщения
Вы не можете редактировать свои сообщения
Вы не можете удалять свои сообщения
Вы не можете голосовать в опросах
Вы не можете прикреплять файлы к сообщениям
Вы не можете скачивать файлы