(Classical) Luzzascho Luzzaschi, Ludovico Agostini - Le Concert Secret des Dames de Ferrare - Doulce Memoire, Denis Raisin Dadre - 2007, FLAC (image+.cue) lossless


 

[Цитировать]

Luzzascho Luzzaschi, Ludovico Agostini - Le Concert Secret des Dames de Ferrare - Doulce Mémoire, Denis Raisin Dadre
Жанр: Classical
Страна-производитель диска: France
Год издания диска: 2007
Издатель (лейбл): Zig-Zag Territoires
Номер по каталогу: ZZT071001
Дата записи: 2007
Аудиокодек: FLAC
Тип рипа: image+.cue
Битрейт аудио: lossless
Продолжительность: 58:57
Источник: собственный рип
Наличие сканов в содержимом раздачи: да
Треклист:
Le Concert Secret des Dames de Ferrare
Concerto Delle Dame (1580-1597)
[1] Luzzascho Luzzaschi: Non sa che sia dolore
[2] Luzzascho Luzzaschi: Cor mio
[3] Giuglio Cesare Barbetta: Campai contento
[4] Luzzascho Luzzaschi: Io mi son giovinetta
[5] Ludovico Agostini: Ecco col nostro Duca
[6] Ludovico Agostini: Qual e maggior
[7] Ludovico Agostini: Enigma: Una si chiara luce
[8] Giuglio Cesare Barbetta: Baletto de contadini lombardi
[9] Ludovico Agostini: Tu che girando
[10] Luzzascho Luzzaschi: T'amo mia vita
[11] Luzzascho Luzzaschi: Fantasia a quattro sopra 'Ave maris stella'
[12] Luzzascho Luzzaschi: Aura soave
[13] Ludovico Agostini: Quel canto oime
[14] Luzzascho Luzzaschi: Toccata del quarto tono
[15] Luzzascho Luzzaschi: Ch'io non t ami
[16] Luzzascho Luzzaschi: O dolcezze amarissime
[17] Ludovico Agostini: Mentre l'argute
[18] Ludovico Agostini: Contrapuncto primo
[19] Luzzascho Luzzaschi: Stral pungente d amore
[20] Ludovico Agostini: Questa ch'el cor
[21] Luzzascho Luzzaschi: Se parti io moro
[22] Ludovico Agostini: Il nostro vago
[23] Ludovico Agostini: Enigma: Vago augellin
[24] Luzzascho Luzzaschi: Deh vieni hormai
[25] Ludovico Agostini: Enigma: Ne la beata vespa
[26] Luzzascho Luzzaschi: Troppo ben puo
Исполнители:
Doulce Mémoire
Denis Raisin Dadre
direction

Лог создания рипа

Exact Audio Copy V1.1 from 23. June 2015
EAC extraction logfile from 23. August 2015, 19:35
Doulce Memoire, Denis Raisin Dadre / Luzzaschi, Agostini - Concerto Delle Dame
Used drive : HL-DT-STDVDRAM GU70N Adapter: 1 ID: 0
Read mode : Secure
Utilize accurate stream : Yes
Defeat audio cache : Yes
Make use of C2 pointers : No
Read offset correction : 48
Overread into Lead-In and Lead-Out : No
Fill up missing offset samples with silence : Yes
Delete leading and trailing silent blocks : No
Null samples used in CRC calculations : Yes
Used interface : Native Win32 interface for Win NT & 2000
Used output format : User Defined Encoder
Selected bitrate : 128 kBit/s
Quality : High
Add ID3 tag : No
Command line compressor : C:\Program Files (x86)\Exact Audio Copy\Flac\flac.exe
Additional command line options : -V -8 -T "Date=%year%" -T "Genre=%genre%" %source%
TOC of the extracted CD
Track | Start | Length | Start sector | End sector
---------------------------------------------------------
1 | 0:00.00 | 2:36.18 | 0 | 11717
2 | 2:36.18 | 2:44.35 | 11718 | 24052
3 | 5:20.53 | 1:10.16 | 24053 | 29318
4 | 6:30.69 | 2:52.24 | 29319 | 42242
5 | 9:23.18 | 1:33.72 | 42243 | 49289
6 | 10:57.15 | 1:15.31 | 49290 | 54945
7 | 12:12.46 | 2:54.67 | 54946 | 68062
8 | 15:07.38 | 0:57.70 | 68063 | 72407
9 | 16:05.33 | 1:45.08 | 72408 | 80290
10 | 17:50.41 | 1:57.22 | 80291 | 89087
11 | 19:47.63 | 2:06.66 | 89088 | 98603
12 | 21:54.54 | 2:53.18 | 98604 | 111596
13 | 24:47.72 | 1:36.43 | 111597 | 118839
14 | 26:24.40 | 1:43.66 | 118840 | 126630
15 | 28:08.31 | 3:03.36 | 126631 | 140391
16 | 31:11.67 | 3:49.55 | 140392 | 157621
17 | 35:01.47 | 2:50.47 | 157622 | 170418
18 | 37:52.19 | 2:03.57 | 170419 | 179700
19 | 39:56.01 | 2:33.35 | 179701 | 191210
20 | 42:29.36 | 2:34.32 | 191211 | 202792
21 | 45:03.68 | 2:03.73 | 202793 | 212090
22 | 47:07.66 | 1:45.25 | 212091 | 219990
23 | 48:53.16 | 1:47.09 | 219991 | 228024
24 | 50:40.25 | 3:07.13 | 228025 | 242062
25 | 53:47.38 | 1:39.16 | 242063 | 249503
26 | 55:26.54 | 3:30.08 | 249504 | 265261
Range status and errors
Selected range
Filename C:\temp\Luzzaschi, Agostini - Concerto Delle Dame\Luzzaschi, Agostini - Concerto Delle Dame.wav
Peak level 80.8 %
Extraction speed 5.1 X
Range quality 99.9 %
Test CRC 519D2832
Copy CRC 519D2832
Copy OK
No errors occurred
AccurateRip summary
Track 1 accurately ripped (confidence 6) [C8622EA0] (AR v2)
Track 2 accurately ripped (confidence 6) [84037188] (AR v2)
Track 3 accurately ripped (confidence 6) [2E3DB012] (AR v2)
Track 4 accurately ripped (confidence 6) [3CA04A46] (AR v2)
Track 5 accurately ripped (confidence 6) [7B83DFEA] (AR v2)
Track 6 accurately ripped (confidence 6) [E6A66A43] (AR v2)
Track 7 accurately ripped (confidence 6) [A1EB4877] (AR v2)
Track 8 accurately ripped (confidence 6) [C43E5C8E] (AR v2)
Track 9 accurately ripped (confidence 6) [BFC1DE46] (AR v2)
Track 10 accurately ripped (confidence 6) [CB685043] (AR v2)
Track 11 accurately ripped (confidence 6) [E7C64183] (AR v2)
Track 12 accurately ripped (confidence 6) [1CA4B465] (AR v2)
Track 13 accurately ripped (confidence 6) [5017D1E1] (AR v2)
Track 14 accurately ripped (confidence 6) [45EADCA9] (AR v2)
Track 15 accurately ripped (confidence 6) [60EDBCC7] (AR v2)
Track 16 accurately ripped (confidence 6) [CFC957E3] (AR v2)
Track 17 accurately ripped (confidence 6) [8EA86170] (AR v2)
Track 18 accurately ripped (confidence 6) [C0DA02A5] (AR v2)
Track 19 accurately ripped (confidence 6) [A0FA25A8] (AR v2)
Track 20 accurately ripped (confidence 6) [FE63E3C3] (AR v2)
Track 21 accurately ripped (confidence 6) [4CDA0B6F] (AR v2)
Track 22 accurately ripped (confidence 6) [FCED48B6] (AR v2)
Track 23 accurately ripped (confidence 6) [816C4391] (AR v2)
Track 24 accurately ripped (confidence 6) [76C8E4D4] (AR v2)
Track 25 accurately ripped (confidence 6) [AF8E997B] (AR v2)
Track 26 accurately ripped (confidence 6) [64CB7FA5] (AR v2)
All tracks accurately ripped
End of status report
==== Log checksum 307CE235F8F348D6CF732182F69629E4C093ADDFD5F650B36DBED71FF4DF6E8D ====



Показать сообщения:    

Текущее время: 09-Дек 03:05

Часовой пояс: UTC + 3


Вы не можете начинать темы
Вы не можете отвечать на сообщения
Вы не можете редактировать свои сообщения
Вы не можете удалять свои сообщения
Вы не можете голосовать в опросах
Вы не можете прикреплять файлы к сообщениям
Вы не можете скачивать файлы