(Opera) Opera Feast at the Concertgebouw (Deutekom, Margiono, Miricioiu, Boe - Jubilee Orchester, Haider / The Brabant Orchester, Soustrot) - 1996, APE (image+.cue) lossless


 

[Цитировать]

Opera Feest in het Concertgebouw
Жанр: Opera
Страна-производитель диска: EU
Год издания диска: 1996
Издатель (лейбл): Vanguard Classics
Номер по каталогу: 119127
Дата записи: 1996
Аудиокодек: APE
Тип рипа: image+.cue
Битрейт аудио: lossless
Продолжительность: 59'19+69'41
Источник: собственный рип
Наличие сканов в содержимом раздачи: да
Треклист / Исполнители:
CD1
1. Rossini - Semeramide (first act) - Bel' raggio lusinghier [Eiran James]
2. Delibes - Lakmé (first act) - Viens Malika (duet of Lakmé and Malika) [Marisca Mulder and Eiran James]
3. Mozart - Le nozze di Figaro (third act) - Riconosci in questo amplesso (sextet) - [Joke de Vin, Jochem Kupfer,Gert Jan Alders, Nico van der Meel, Geert Smits, Marisca Mulder]
4. Verdi - Atilla (second act) - Dagli'immortail vertici (aria of Ezio) - [Ernst Daniel Smid]
5. Mozart - Don Giovanni (second act) - Solo, sola in buio loca (sextet) - [Annegeer Stumphius, Willemijn van Gent, Maya Boog, Marcel Reymans, Jaco Huypen, Geert Smits]
6. Bellini - Norma (third act) - Mira, o Norma (duet of Adelgisa and Norma) - [Nelly Miricioui and Charlotte Margiono]
7. Bellini - Il Pirata (third act) - Col sorriso d'innocenza (aria Adriana) - [Nelly Miriciou]
Jubileum Orkest, Friedrich Haider
CD2
1. Verdi - Don Carlo (third act) - Per me Giunto (aria Posa) - [Thomas Quasthoff]
2. Strauss - Der Rosenkavalier (third act) - Spür nur Dich allein / Ist ein Traum - [Nienke Oostenrijk, Ingeborg Kosma, Charlotte Margiono, Ernst Daniël Smid]
3. Puccini - La Boheme (first act) - Che gelida marina (aria Rudolfo) - [Alfred Boe]
4. Saint-Saëns - Samson et Dalila (second act) - Mon coeur s'ouvre à ta voix (aria) - [Birgit Remmert]
5. Verdi - Otello (fourth act) - Mia madre aveva una povera ancello (canzone del Salce) - [Charlotte Margiono]
6. von Flotow - Martha (third act) - Mag der Himmel Euch vergeben (quintet) - [Marcel Reymans, Annegeer Stumphius, Joke de Vin, Jochen Kupfer, Jaco Huypen]
7. Puccini - Manon Lescaut (fourth act) - Sola perduta, abbandonata (aria Manon) - [Jeannine Altmeyer]
8. Offenbach - Les Contes D'Hoffmann (second act) Belle nuit, barcarolle (duet) - [Jeannine Altmeyer, Birgit Remmert]
9. Lehár - Das Land des Lächelns - Dein ist mein ganzes Hertz (lied van Sou-Chong) - [Alfred Boe]
10. Verdi - I Vespri Siciliani (fifth act) - Merce, Dilette Amiche (bolero Elena) - [Christine Deutekom]
11. Lehár - Paganini - Liebe Du Himmel auf Erden (lied van Bella Giretti) - [Christine Deutekom]
Het Brabants Orkest, Marc Soustrot

Лог создания рипа

CD1

Exact Audio Copy V1.0 beta 6 from 9. April 2015
EAC extraction logfile from 27. August 2015, 20:34
Jubileum Orkest, Friedrich Haider / Operafeest in het Concertgebouw CD1
Used drive : TSSTcorpCDDVDW SE-208AB Adapter: 1 ID: 2
Read mode : Secure
Utilize accurate stream : Yes
Defeat audio cache : Yes
Make use of C2 pointers : No
Read offset correction : 6
Overread into Lead-In and Lead-Out : No
Fill up missing offset samples with silence : Yes
Delete leading and trailing silent blocks : No
Null samples used in CRC calculations : Yes
Used interface : Native Win32 interface for Win NT & 2000
Used output format : Monkey's Audio Lossless Encoder
Selected bitrate : High Lossless Compression
Quality : High
Add ID3 tag : Yes
Command line compressor : C:\Program Files (x86)\Exact Audio Copy\MAC\MAC.exe
TOC of the extracted CD
Track | Start | Length | Start sector | End sector
---------------------------------------------------------
1 | 0:00.00 | 6:33.42 | 0 | 29516
2 | 6:33.42 | 6:28.60 | 29517 | 58676
3 | 13:02.27 | 4:47.08 | 58677 | 80209
4 | 17:49.35 | 5:12.15 | 80210 | 103624
5 | 23:01.50 | 7:24.35 | 103625 | 136959
6 | 30:26.10 | 7:20.40 | 136960 | 169999
7 | 37:46.50 | 18:33.02 | 170000 | 253476
Range status and errors
Selected range
Filename D:\EAC\Operafeest in het Concertgebouw CD1.wav
Peak level 100.0 %
Extraction speed 1.8 X
Range quality 100.0 %
Test CRC 3339AB24
Copy CRC 3339AB24
Copy OK
No errors occurred
AccurateRip summary
Track 1 accurately ripped (confidence 2) [E3A7570D] (AR v1)
Track 2 accurately ripped (confidence 2) [061BE7B8] (AR v1)
Track 3 accurately ripped (confidence 2) [5212DFE2] (AR v1)
Track 4 accurately ripped (confidence 2) [B58FD7F1] (AR v1)
Track 5 accurately ripped (confidence 2) [FA9C4047] (AR v1)
Track 6 accurately ripped (confidence 2) [4A7A5850] (AR v1)
Track 7 accurately ripped (confidence 2) [D09358A0] (AR v1)
All tracks accurately ripped
End of status report
---- CUETools DB Plugin V2.1.6
[CTDB TOCID: XLxmRSskzrqKbvd_tFusbU8lpNQ-] found
Submit result: XLxmRSskzrqKbvd_tFusbU8lpNQ- has been confirmed
Track | CTDB Status
1 | (1/1) Accurately ripped
2 | (1/1) Accurately ripped
3 | (1/1) Accurately ripped
4 | (1/1) Accurately ripped
5 | (1/1) Accurately ripped
6 | (1/1) Accurately ripped
7 | (1/1) Accurately ripped
==== Log checksum C322DE227F7CA41065C002D7AEB107C1E2EE09721D6B3522F58087551973AA23 ====

CD2

Exact Audio Copy V1.0 beta 6 from 9. April 2015
EAC extraction logfile from 27. August 2015, 20:38
Het Brabants Orkest, Marc Soustrot / Operafeest in het Concertgebouw CD2
Used drive : TS8XDVDSTRANSCEND Adapter: 1 ID: 1
Read mode : Secure
Utilize accurate stream : Yes
Defeat audio cache : Yes
Make use of C2 pointers : No
Read offset correction : 6
Overread into Lead-In and Lead-Out : No
Fill up missing offset samples with silence : Yes
Delete leading and trailing silent blocks : No
Null samples used in CRC calculations : Yes
Used interface : Native Win32 interface for Win NT & 2000
Used output format : Monkey's Audio Lossless Encoder
Selected bitrate : High Lossless Compression
Quality : High
Add ID3 tag : Yes
Command line compressor : C:\Program Files (x86)\Exact Audio Copy\MAC\MAC.exe
TOC of the extracted CD
Track | Start | Length | Start sector | End sector
---------------------------------------------------------
1 | 0:00.00 | 5:51.30 | 0 | 26354
2 | 5:51.30 | 8:36.52 | 26355 | 65106
3 | 14:28.07 | 5:05.55 | 65107 | 88036
4 | 19:33.62 | 7:07.20 | 88037 | 120081
5 | 26:41.07 | 15:29.43 | 120082 | 189799
6 | 42:10.50 | 3:05.32 | 189800 | 203706
7 | 45:16.07 | 5:28.58 | 203707 | 228364
8 | 50:44.65 | 4:22.07 | 228365 | 248021
9 | 55:06.72 | 4:09.00 | 248022 | 266696
10 | 59:15.72 | 4:34.38 | 266697 | 287284
11 | 63:50.35 | 5:50.70 | 287285 | 313604
Range status and errors
Selected range
Filename D:\EAC\Operafeest in het Concertgebouw CD2.wav
Peak level 89.7 %
Extraction speed 2.1 X
Range quality 100.0 %
Test CRC D7928D4F
Copy CRC D7928D4F
Copy OK
No errors occurred
AccurateRip summary
Track 1 accurately ripped (confidence 2) [B97B0C87] (AR v1)
Track 2 accurately ripped (confidence 2) [0421263F] (AR v1)
Track 3 accurately ripped (confidence 2) [3171364A] (AR v1)
Track 4 accurately ripped (confidence 2) [C6536FD7] (AR v1)
Track 5 accurately ripped (confidence 2) [04E2924D] (AR v1)
Track 6 accurately ripped (confidence 2) [BEB242D5] (AR v1)
Track 7 accurately ripped (confidence 2) [971766A1] (AR v1)
Track 8 accurately ripped (confidence 2) [3D53559A] (AR v1)
Track 9 accurately ripped (confidence 2) [F6144FE4] (AR v1)
Track 10 accurately ripped (confidence 2) [96E7FE37] (AR v1)
Track 11 accurately ripped (confidence 2) [3E2CBB98] (AR v1)
All tracks accurately ripped
End of status report
---- CUETools DB Plugin V2.1.6
[CTDB TOCID: rVBfumDzyiDMFBxxIyxBIwYI8wA-] found
Submit result: unrecognized or virtual drive
Track | CTDB Status
1 | (1/1) Accurately ripped
2 | (1/1) Accurately ripped
3 | (1/1) Accurately ripped
4 | (1/1) Accurately ripped
5 | (1/1) Accurately ripped
6 | (1/1) Accurately ripped
7 | (1/1) Accurately ripped
8 | (1/1) Accurately ripped
9 | (1/1) Accurately ripped
10 | (1/1) Accurately ripped
11 | (1/1) Accurately ripped
==== Log checksum 6A3FF99BC7C334FBFCE32E31A37E08C1FB9E514CF88FAAE6EB9399047DE114B1 ====

Содержание индексной карты (.CUE)

CD1

REM GENRE Opera
REM DATE 1996
REM DISCID 630D3307
REM COMMENT "ExactAudioCopy v1.0b6"
CATALOG 0000000000000
PERFORMER "Jubileum Orkest, Friedrich Haider"
TITLE "Operafeest in het Concertgebouw CD1"
FILE "Operafeest in het Concertgebouw CD1.ape" WAVE
TRACK 01 AUDIO
TITLE "Rossini - Semeramide (first act) - Bel' raggio lusinghier"
PERFORMER "Eiran James"
INDEX 01 00:00:00
TRACK 02 AUDIO
TITLE "Delibes - Lakmé (first act) - Viens Malika (duet of Lakmé and Malika)"
PERFORMER "Marisca Mulder and Eiran James"
INDEX 01 06:33:42
TRACK 03 AUDIO
TITLE "Mozart - Le nozze di Figaro (third act) - Riconosci in questo amplesso (sextet) "
PERFORMER "Joke de Vin, Jochem Kupfer,Gert Jan Alders, Nico van der Meel, Geert Smits, M..."
INDEX 01 13:02:27
TRACK 04 AUDIO
TITLE "Verdi - Atilla (second act) - Dagli'immortail vertici (aria of Ezio)"
PERFORMER "Ernst Daniel Smid"
INDEX 01 17:49:35
TRACK 05 AUDIO
TITLE "Mozart - Don Giovanni (second act) - Solo, sola in buio loca (sextet)"
PERFORMER "Annegeer Stumphius, Willemijn van Gent, Maya Boog, Marcel Reymans, Jaco Huype..."
INDEX 01 23:01:50
TRACK 06 AUDIO
TITLE "Bellini - Norma (third act) - Mira, o Norma (duet of Adelgisa and Norma)"
PERFORMER " Nelly Miricioui and Charlotte Margiono"
INDEX 01 30:26:10
TRACK 07 AUDIO
TITLE "Bellini - Il Pirata (third act) - Col sorriso d'innocenza (aria Adriana)"
PERFORMER "Nelly Miriciou"
INDEX 01 37:46:50

CD2

REM DISCID 9110550B
REM COMMENT "ExactAudioCopy v1.0b6"
CATALOG 0000000000000
PERFORMER "Het Brabants Orkest, Marc Soustrot"
TITLE "Operafeest in het Concertgebouw CD2"
FILE "Operafeest in het Concertgebouw CD2.ape" WAVE
TRACK 01 AUDIO
TITLE "Verdi - Don Carlo (third act) - Per me Giunto (aria Posa)"
PERFORMER "Thomas Quasthoff"
INDEX 01 00:00:00
TRACK 02 AUDIO
TITLE "Strauss - Der Rosenkavalier (third act) - Spür nur Dich allein / Ist ein Trau..."
PERFORMER "Nienke Oostenrijk, Ingeborg Kosma, Charlotte Margiono, Ernst Daniël Smid"
INDEX 01 05:51:30
TRACK 03 AUDIO
TITLE "Puccini - La Boheme (first act) - Che gelida marina (aria Rudolfo)"
PERFORMER "Alfred Boe"
INDEX 01 14:28:07
TRACK 04 AUDIO
TITLE "Saint-Saëns - Samson et Dalila (second act) - Mon coeur s'ouvre à ta voix (ar..."
PERFORMER "Birgit Remmert"
INDEX 01 19:33:62
TRACK 05 AUDIO
TITLE "Verdi - Otello (fourth act) - Mia madre aveva una povera ancello (canzone de ..."
PERFORMER "Charlotte Margiono"
INDEX 01 26:41:07
TRACK 06 AUDIO
TITLE "von Flotow - Martha (third act) - Mag der Himmel Euch vergeben (quintet)"
PERFORMER "Marce Reymans, Annegeer Stumphius, Joke de Vin, Jochen Kupfer, Jaco Huypen"
INDEX 01 42:10:50
TRACK 07 AUDIO
TITLE "Puccini - Manon Lescaut (fourth act) - Sola perduta, abbandonata (aria Manon)"
PERFORMER "Jeannine Altmeyer"
INDEX 01 45:16:07
TRACK 08 AUDIO
TITLE "Offenbach - Les Contes D'Hoffmann (second act) Belle nuit, barcarolle (duet)"
PERFORMER "Jeannine Altmeyer, Birgit Remmert"
INDEX 01 50:44:65
TRACK 09 AUDIO
TITLE "Lehár - Das Land des Lächelns - Dein ist mein ganzes Hertz (lied van Sou-Chong)"
PERFORMER "Alfred Boe"
INDEX 01 55:06:72
TRACK 10 AUDIO
TITLE "Verdi - I Vespri Siciliani (fifth act) - Merce, Dilette Amiche (bolero Elena)"
PERFORMER "Christine Deutekom"
INDEX 01 59:15:72
TRACK 11 AUDIO
TITLE "Lehár - Paganini - Liebe Du Himmel auf Erden (lied van Bella Giretti)"
PERFORMER "Christine Deutekom"
INDEX 01 63:50:35



Показать сообщения:    

Текущее время: 06-Дек 11:10

Часовой пояс: UTC + 3


Вы не можете начинать темы
Вы не можете отвечать на сообщения
Вы не можете редактировать свои сообщения
Вы не можете удалять свои сообщения
Вы не можете голосовать в опросах
Вы не можете прикреплять файлы к сообщениям
Вы не можете скачивать файлы