(Oratorio, Sacred) Victory - Ultima Rerum (Opie, Greevy, Kerr, Thompson - RTE Philharmonic & National Chamber Choir / National Symphony Orchestra of Ireland, Pearce) - 1994, APE (image+.cue) lossless


Статистика раздачи [Обновить пиров]
Размер:  374 MB   |    Зарегистрирован:  8 месяцев 18 дней   |    Скачан:  0 раз

Полного источника не было: Никогда

 
   
 
 
 

[Цитировать]

Gerard Victory - Ultima Rerum
Жанр: Oratorio, Sacred
Страна-производитель диска: Germany
Год издания диска: 1994
Издатель (лейбл): Marco Polo
Номер по каталогу: 8.223532-3
Дата записи: 1994
Аудиокодек: APE
Тип рипа: image+.cue
Битрейт аудио: lossless
Продолжительность: 49'07+48'47
Источник: собственный рип
Наличие сканов в содержимом раздачи: да
Треклист:
Треклист:
CD1
1. Kyrie
2. Canzone funebre
3. Dies irae
4. De profundis
5. Offertorium
CD2
1. Canzone a se stesso
2. Sanctus
3. In paradisum
4. Benedictus
5. Agnus Dei
Исполнители:
Gerard Victory - Ultima Rerum
Alan Opie, baritone
Bernadette Greevy, mezzo-soprano
Virginia Kerr, soprano
Adrian Thompson, tenor
RTE Philharmonic Choir
Cór na nÓg RTE & National Chamber Choir
National Symphony Orchestra of Ireland
Colman Pearce, Conductor

Лог создания рипа

CD1

Exact Audio Copy V1.0 beta 6 from 9. April 2015
EAC extraction logfile from 26. August 2015, 18:08
Opie, Greevy, Kerr, Thompson - National Symphony Orchestra of Ireland, Pearce / Victory - Ultima Rerum CD1
Used drive : TSSTcorpCDDVDW SE-208AB Adapter: 1 ID: 2
Read mode : Secure
Utilize accurate stream : Yes
Defeat audio cache : Yes
Make use of C2 pointers : No
Read offset correction : 6
Overread into Lead-In and Lead-Out : No
Fill up missing offset samples with silence : Yes
Delete leading and trailing silent blocks : No
Null samples used in CRC calculations : Yes
Used interface : Native Win32 interface for Win NT & 2000
Used output format : Monkey's Audio Lossless Encoder
Selected bitrate : High Lossless Compression
Quality : High
Add ID3 tag : Yes
Command line compressor : C:\Program Files (x86)\Exact Audio Copy\MAC\MAC.exe
TOC of the extracted CD
Track | Start | Length | Start sector | End sector
---------------------------------------------------------
1 | 0:00.00 | 13:42.25 | 0 | 61674
2 | 13:42.25 | 7:35.32 | 61675 | 95831
3 | 21:17.57 | 9:43.53 | 95832 | 139609
4 | 31:01.35 | 7:47.65 | 139610 | 174699
5 | 38:49.25 | 10:18.17 | 174700 | 221066
Range status and errors
Selected range
Filename D:\EAC\Victory - Ultima Rerum CD1.wav
Peak level 97.7 %
Extraction speed 1.8 X
Range quality 100.0 %
Test CRC 86699FCC
Copy CRC 86699FCC
Copy OK
No errors occurred
AccurateRip summary
Track 1 accurately ripped (confidence 1) [E8DBA895] (AR v2)
Track 2 accurately ripped (confidence 1) [B17B4D09] (AR v2)
Track 3 accurately ripped (confidence 1) [93EC9262] (AR v2)
Track 4 accurately ripped (confidence 1) [97CCA209] (AR v2)
Track 5 accurately ripped (confidence 1) [DEC94BDD] (AR v2)
All tracks accurately ripped
End of status report
---- CUETools DB Plugin V2.1.6
[CTDB TOCID: IOTOfSZPTqHu0aiv5JoB3tFwxyk-] found
Submit result: IOTOfSZPTqHu0aiv5JoB3tFwxyk- has been confirmed
Track | CTDB Status
1 | (1/1) Accurately ripped
2 | (1/1) Accurately ripped
3 | (1/1) Accurately ripped
4 | (1/1) Accurately ripped
5 | (1/1) Accurately ripped
==== Log checksum 1E054D814F2664D31065F8EF7512AF70CF21B9EBF187E9D9D63FB49AD46DFC95 ====

CD2

Exact Audio Copy V1.0 beta 6 from 9. April 2015
EAC extraction logfile from 26. August 2015, 18:08
Opie, Greevy, Kerr, Thompson - National Symphony Orchestra of Ireland, Pearce / Victory - Ultima Rerum CD2
Used drive : TS8XDVDSTRANSCEND Adapter: 1 ID: 1
Read mode : Secure
Utilize accurate stream : Yes
Defeat audio cache : Yes
Make use of C2 pointers : No
Read offset correction : 6
Overread into Lead-In and Lead-Out : No
Fill up missing offset samples with silence : Yes
Delete leading and trailing silent blocks : No
Null samples used in CRC calculations : Yes
Used interface : Native Win32 interface for Win NT & 2000
Used output format : Monkey's Audio Lossless Encoder
Selected bitrate : High Lossless Compression
Quality : High
Add ID3 tag : Yes
Command line compressor : C:\Program Files (x86)\Exact Audio Copy\MAC\MAC.exe
TOC of the extracted CD
Track | Start | Length | Start sector | End sector
---------------------------------------------------------
1 | 0:00.00 | 5:48.40 | 0 | 26139
2 | 5:48.40 | 14:29.72 | 26140 | 91386
3 | 20:18.37 | 6:25.48 | 91387 | 120309
4 | 26:44.10 | 6:00.25 | 120310 | 147334
5 | 32:44.35 | 16:03.00 | 147335 | 219559
Range status and errors
Selected range
Filename D:\EAC\Victory - Ultima Rerum CD2.wav
Peak level 97.7 %
Extraction speed 1.8 X
Range quality 100.0 %
Test CRC B81D4B9F
Copy CRC B81D4B9F
Copy OK
No errors occurred
AccurateRip summary
Track 1 accurately ripped (confidence 1) [81AA948A] (AR v2)
Track 2 accurately ripped (confidence 1) [C94CFCE5] (AR v2)
Track 3 accurately ripped (confidence 1) [0DB871D3] (AR v2)
Track 4 accurately ripped (confidence 1) [4F442827] (AR v2)
Track 5 accurately ripped (confidence 1) [F99C86DF] (AR v2)
All tracks accurately ripped
End of status report
---- CUETools DB Plugin V2.1.6
[CTDB TOCID: OvZbdh9qbpe6aia4IeVpCZGq5wU-] found
Submit result: unrecognized or virtual drive
Track | CTDB Status
1 | (0/1) No match
2 | (0/1) No match
3 | (0/1) No match
4 | (0/1) No match
5 | (0/1) No match
==== Log checksum EB0135C39FD0D9FC272F2B92A6D1B5D0037D400CA19F678C4622CB2B4470B319 ====

Содержание индексной карты (.CUE)

CD1

REM GENRE Oratorio
REM DATE 1992
REM DISCID 3E0B8305
REM COMMENT "ExactAudioCopy v1.0b6"
PERFORMER "Opie, Greevy, Kerr, Thompson - National Symphony Orchestra of Ireland, Pearce"
TITLE "Victory - Ultima Rerum CD1"
FILE "Victory - Ultima Rerum CD1.ape" WAVE
TRACK 01 AUDIO
TITLE "Kyrie"
PERFORMER "Opie, Greevy, Kerr, Thompson - National Symphony Orchestra of Ireland, Pearce"
INDEX 01 00:00:00
TRACK 02 AUDIO
TITLE "Canzone funebre"
PERFORMER "Opie, Greevy, Kerr, Thompson - National Symphony Orchestra of Ireland, Pearce"
INDEX 01 13:42:25
TRACK 03 AUDIO
TITLE "Dies irae"
PERFORMER "Opie, Greevy, Kerr, Thompson - National Symphony Orchestra of Ireland, Pearce"
INDEX 01 21:17:57
TRACK 04 AUDIO
TITLE "De profundis"
PERFORMER "Opie, Greevy, Kerr, Thompson - National Symphony Orchestra of Ireland, Pearce"
INDEX 01 31:01:35
TRACK 05 AUDIO
TITLE "Offertorium"
PERFORMER "Opie, Greevy, Kerr, Thompson - National Symphony Orchestra of Ireland, Pearce"
INDEX 01 38:49:25

CD2

REM GENRE Oratorio
REM DATE 1992
REM DISCID 320B6F05
REM COMMENT "ExactAudioCopy v1.0b6"
PERFORMER "Opie, Greevy, Kerr, Thompson - National Symphony Orchestra of Ireland, Pearce"
TITLE "Victory - Ultima Rerum CD2"
FILE "Victory - Ultima Rerum CD2.ape" WAVE
TRACK 01 AUDIO
TITLE "Canzone a se stesso"
PERFORMER "Opie, Greevy, Kerr, Thompson - National Symphony Orchestra of Ireland, Pearce"
INDEX 01 00:00:00
TRACK 02 AUDIO
TITLE "Sanctus"
PERFORMER "Opie, Greevy, Kerr, Thompson - National Symphony Orchestra of Ireland, Pearce"
INDEX 01 05:48:40
TRACK 03 AUDIO
TITLE "In paradisum"
PERFORMER "Opie, Greevy, Kerr, Thompson - National Symphony Orchestra of Ireland, Pearce"
INDEX 01 20:18:37
TRACK 04 AUDIO
TITLE "Benedictus"
PERFORMER "Opie, Greevy, Kerr, Thompson - National Symphony Orchestra of Ireland, Pearce"
INDEX 01 26:44:10
TRACK 05 AUDIO
TITLE "Agnus Dei"
PERFORMER "Opie, Greevy, Kerr, Thompson - National Symphony Orchestra of Ireland, Pearce"
INDEX 01 32:44:35
[teatrix.ru].t22144.torrent 
Торрент: Зарегистрирован [ 2016-03-20 12:43 ] · 956CAEE1BB5C02A439B24ECB5188A4AF48850BC5

Скачать .torrent

Скачать

16 KB

Статус: проверено
Скачан: 0 раз
Размер: 374 MB
terms.php



Быстрый ответ

Имя:

      
Для отправки сообщений необходимо включить JavaScript
Показать сообщения:    

Текущее время: 08-Дек 11:00

Часовой пояс: UTC + 3


Вы можете начинать темы
Вы можете отвечать на сообщения
Вы не можете редактировать свои сообщения
Вы не можете удалять свои сообщения
Вы не можете голосовать в опросах
Вы не можете прикреплять файлы к сообщениям
Вы можете скачивать файлы