Оркестр со свалки / Scrapheap orchestra (Пол Бернейс / Paul Bernays) [2011, Документальный, музыка, IPTVRip]


Статистика раздачи [Обновить пиров]
Размер:  1003 MB   |    Зарегистрирован:  8 месяцев 17 дней   |    Скачан:  0 раз

Полного источника не было: Никогда

 
   
 
 
 

[Цитировать]

Оркестр со свалки
Scrapheap orchestra
Дата/Год выпуска: 2011
Страна: Англия
Жанр: Документальный, музыка
Продолжительность: 01:20:02
Перевод: Профессиональный (многоголосый закадровый)
Доп. инфо о переводе: Культура
Русские субтитры: нет
Оригинальная аудиодорожка: нет
Режиссер: Пол Бернейс / Paul Bernays
Описание: Могут ли профессиональные музыканты извлекать красивые звуки из предметов, далеких от музыки? Например, из мусора? Новый документальный фильм BBC дает ответ на этот вопрос. Впервые в истории целый оркестр из 44 инструментов будет создан только из металлолома и макулатуры. Дирижер Чарльз Хэзлвуд призвал группу ведущих производителей музыкальных инструментов Великобритании превратить мусор, сломанную мебель и бытовые отходы в культурный феномен. В процессе создания инструментов мы углубимся в их историю, узнаем, почему различные инструменты таковы, как они есть, почему некоторые не изменились в течение сотен лет, а некоторые совсем не похожи на своих предшественников. Концертный оркестр BBC - коллектив виртуозов - поставит свою репутацию на кон, исполнив на "инструментах со свалки" увертюру "1812 год" Чайковского в Королевском Альберт-холле.
Сэмпл
качество: IPTVRip
формат: AVI
Видео: 720x400 (1.80:1), 25 fps, XviD build 73 ~ 1549 kbps avg, 0.215 bit/pixel
Аудио: Dolby AC3 48000Hz stereo 192kbps

MediaInfo

General
Complete name : D:\#Torrents\Doc_Video\Оркестр со свалки (2011) Xvid IPTVRip by Черник Rutracker.avi
Format : AVI
Format/Info : Audio Video Interleave
File size : 1 003 MiB
Duration : 1h 20mn
Overall bit rate : 1 752 Kbps
Writing application : VirtualDubMod 1.5.10.3 | www.virtualdub-fr.org || (build 2550/release)
Writing library : VirtualDubMod build 2550/release
Video
ID : 0
Format : MPEG-4 Visual
Format profile : Advanced Simple@L5
Format settings, BVOP : 2
Format settings, QPel : No
Format settings, GMC : No warppoints
Format settings, Matrix : Default (H.263)
Codec ID : XVID
Codec ID/Hint : XviD
Duration : 1h 20mn
Bit rate : 1 550 Kbps
Width : 720 pixels
Height : 400 pixels
Display aspect ratio : 16:9
Frame rate : 25.000 fps
Color space : YUV
Chroma subsampling : 4:2:0
Bit depth : 8 bits
Scan type : Progressive
Compression mode : Lossy
Bits/(Pixel*Frame) : 0.215
Stream size : 887 MiB (88%)
Writing library : XviD 73
Audio
ID : 1
Format : AC-3
Format/Info : Audio Coding 3
Mode extension : CM (complete main)
Format settings, Endianness : Big
Codec ID : 2000
Duration : 1h 20mn
Bit rate mode : Constant
Bit rate : 192 Kbps
Channel(s) : 2 channels
Channel positions : Front: L R
Sampling rate : 48.0 KHz
Compression mode : Lossy
Stream size : 110 MiB (11%)
Alignment : Split accross interleaves
Interleave, duration : 40 ms (1.00 video frame)
Interleave, preload duration : 500 ms

Скриншоты

[teatrix.ru].t22147.torrent 
Торрент: Зарегистрирован [ 2016-03-20 12:43 ] · 95DAC4A190BFBCB62CA6D893BD9D02FBC1AF3B08

Скачать .torrent

Скачать

20 KB

Статус: проверено
Скачан: 0 раз
Размер: 1003 MB
terms.php



Быстрый ответ

Имя:

      
Для отправки сообщений необходимо включить JavaScript
Показать сообщения:    

Текущее время: 06-Дек 15:12

Часовой пояс: UTC + 3


Вы можете начинать темы
Вы можете отвечать на сообщения
Вы не можете редактировать свои сообщения
Вы не можете удалять свои сообщения
Вы не можете голосовать в опросах
Вы не можете прикреплять файлы к сообщениям
Вы можете скачивать файлы