(Classical) Johann Hermann Schein - Ich will schweigen - Alice Foccroulle, Béatrice Mayo-Felip, Reinoud van Mechelen; InAlto, Lambert Colson - 2014, FLAC (image+.cue) lossless


 

[Цитировать]

Johann Hermann Schein - Ich will schweigen - Alice Foccroulle, Béatrice Mayo-Felip, Reinoud van Mechelen; InAlto, Lambert Colson
Жанр: Classical
Год издания диска: 2014
Издатель (лейбл): Ramée
Номер по каталогу: RAM1401
Дата записи: 2014
Аудиокодек: FLAC
Тип рипа: image+.cue
Битрейт аудио: lossless
Продолжительность: 62:42
Источник: собственный рип
Наличие сканов в содержимом раздачи: да
Треклист:
Johann Hermann Schein and the Leipzig Stadtpfeifer tradition
[1] Johann Hermann Schein (1586-1630): Canzon »Corollarium«
[2] Johann Hermann Schein: Ich will schweigen
[3] Johann Krieger (1652-1735): Fantasia in D minor
[4] Johann Hermann Schein: Exaudiat te Dominus
[5] Johann Hermann Schein: Suite VII
[6] Heinrich Bach (1615-1692): Erbarm dich mein, o Herre Gott
[7] Johann Hermann Schein: Erbarm dich mein, o Herre Gott
[8] Gottfried Reiche (1667-1734): Fuga XII à 4
[9] Johann Hermann Schein: Herr Christ, der einig Gottes Sohn
[10] Johann Schelle (1648-1701): Nun komm, der Heiden Heiland
[11] Gottfried Reiche: Sonatina à 4
[12] Johann Hermann Schein: Mach dich auf, werde Licht
[13] Johann Hermann Schein: Paduana à 4
[14] Heinrich Scheidemann (1595-1663): In dich hab ich gehoffet, Herr
[15] Johann Sebastian Bach (1685-1750): Fuga sopra Durch Adams Fall ist ganz verderbt, BWV705
Исполнители:
Alice Foccroulle soprano
Béatrice Mayo-Felip soprano
Reinoud van Mechelen tenor
InAlto
Lambert Colson direction

Лог создания рипа

Exact Audio Copy V1.1 from 23. June 2015
EAC extraction logfile from 27. August 2015, 20:51
InAlto, Lambert Colson / Schein - Ich will schweigen
Used drive : HL-DT-STDVDRAM GU70N Adapter: 1 ID: 0
Read mode : Secure
Utilize accurate stream : Yes
Defeat audio cache : Yes
Make use of C2 pointers : No
Read offset correction : 48
Overread into Lead-In and Lead-Out : No
Fill up missing offset samples with silence : Yes
Delete leading and trailing silent blocks : No
Null samples used in CRC calculations : Yes
Used interface : Native Win32 interface for Win NT & 2000
Used output format : User Defined Encoder
Selected bitrate : 128 kBit/s
Quality : High
Add ID3 tag : No
Command line compressor : C:\Program Files (x86)\Exact Audio Copy\Flac\flac.exe
Additional command line options : -V -8 -T "Date=%year%" -T "Genre=%genre%" %source%
TOC of the extracted CD
Track | Start | Length | Start sector | End sector
---------------------------------------------------------
1 | 0:00.00 | 4:19.19 | 0 | 19443
2 | 4:19.19 | 5:53.30 | 19444 | 45948
3 | 10:12.49 | 1:50.14 | 45949 | 54212
4 | 12:02.63 | 8:16.56 | 54213 | 91468
5 | 20:19.44 | 7:48.27 | 91469 | 126595
6 | 28:07.71 | 3:05.04 | 126596 | 140474
7 | 31:13.00 | 3:25.64 | 140475 | 155913
8 | 34:38.64 | 3:13.69 | 155914 | 170457
9 | 37:52.58 | 1:58.33 | 170458 | 179340
10 | 39:51.16 | 2:15.08 | 179341 | 189473
11 | 42:06.24 | 3:21.18 | 189474 | 204566
12 | 45:27.42 | 6:32.35 | 204567 | 234001
13 | 52:00.02 | 2:09.57 | 234002 | 243733
14 | 54:09.59 | 5:42.68 | 243734 | 269451
15 | 59:52.52 | 2:47.09 | 269452 | 281985
Range status and errors
Selected range
Filename C:\temp\Schein - Ich will schweigen\Schein - Ich will schweigen.wav
Peak level 94.7 %
Extraction speed 5.2 X
Range quality 100.0 %
Test CRC 2A56A93E
Copy CRC 2A56A93E
Copy OK
No errors occurred
AccurateRip summary
Track 1 not present in database
Track 2 not present in database
Track 3 not present in database
Track 4 not present in database
Track 5 not present in database
Track 6 not present in database
Track 7 not present in database
Track 8 not present in database
Track 9 not present in database
Track 10 not present in database
Track 11 not present in database
Track 12 not present in database
Track 13 not present in database
Track 14 not present in database
Track 15 not present in database
None of the tracks are present in the AccurateRip database
End of status report
==== Log checksum FDAA312C4D1C3CB62C1387E4B889BFA951BC4AFAB578BACABAF9FBF6C1443772 ====



Показать сообщения:    

Текущее время: 09-Дек 03:05

Часовой пояс: UTC + 3


Вы не можете начинать темы
Вы не можете отвечать на сообщения
Вы не можете редактировать свои сообщения
Вы не можете удалять свои сообщения
Вы не можете голосовать в опросах
Вы не можете прикреплять файлы к сообщениям
Вы не можете скачивать файлы