[TR24][OF] Frederick Fennell - The Music Of Leroy Anderson - 1992/2015 (Classical)

DL-List and Torrent activity [Update пиров]
Size:  1.47 GB   |    Registered:  7 months 4 days   |    Completed:  0 times

Seeder not seen: Never



Frederick Fennell - The Music Of Leroy Anderson Формат записи/Источник записи: [TR24][OF]
Наличие водяных знаков: Нет
Год издания/переиздания диска: 1992/2015
Жанр: Classical
Издатель(лейбл): Universal Music GmbH/Mercury
Продолжительность: 01:08:02
Наличие сканов в содержимом раздачи: digital booklet
01. Belle Of The Ball (2:55)
02. Horse And Buggy (3:40)
03. The Waltzing Cat (2:26)
04. Blue Tango (3:37)
05. Summer Skies (3:02)
06. Song Of The Bells (3:37)
07. The Typewriter (1:45)
08. The Syncopated Clock (2:32)
09. The Girl In Satin (2:44)
10. China Doll (2:56)
11. Saraband (3:50)
12. Fiddle-Faddle (3:53)
13. Sleigh Ride (2:53)
14. Serenata (3:51)
15. Promenade (2:35)
16. Chicken Reel (2:45)
17. Phantom Regiment (3:13)
18. Jazz Legato (1:47)
19. Jazz Pizzicato (1:59)
20. Plink Plank Plunk (2:33)
21. The Bluebells Of Scotland (2:05)
22. The First Day Of Spring (2:52)
23. Song Of Jupiter (4:32)-Оркестр: Eastman-Rochester “POPS” Orchestra
Композитор: Leroy Anderson
Дирижер: Frederick Fennell

Об альбоме

American composer Leroy Anderson was known for his lighthearted orchestral music; many of his most popular and famous pieces are included on this archival recording from the Eastman-Rochester "Pops" Orchestra and a British orchestra, both led by Frederick Fennell. The majority of these works were recorded in Rochester, New York in March 1958 and October 1956; the London session dates back to July 1964. All performances remain highly appreciated and illuminating.
Sentimentality, romance, and a sense of humor--all of these things characterized Leroy Anderson's music, attributes that somehow went missing from much of American classical symphonic repertoire during the '50s, '60s, and '70s (except for Bernstein and a few others). And although there's always an important and enduring place for the more profound, timeless works, there's also one for music that immediately recalls the sound and sensibility of a period and effectively captures its popular mood. Anderson's music did exactly that, and if you don't respond with smiles and toe-tapping enthusiasm when you hear Horse & Buggy, Blue Tango, Summer Skies, The Girl in Satin, China Doll, or Serenata, then you are probably beyond the reach of this light-hearted but seriously entertaining fare, and are sadly disconnected from the schmaltz and slightly tacky but still delightful pleasure of The Waltzing Cat and such classics as The Typewriter, Fiddle-Faddle, The Syncopated Clock, and the still wildly popular Sleigh Ride.
Although the Boston Pops pretty much owned many of these pieces, Frederick Fennell and his Eastman-Rochester Pops (and unnamed London orchestra that plays on nearly half of these 23 tracks) did a more than respectable job, enhanced by the unsurpassed audio engineering of the Mercury Living Presence team--Wilma Cozart, Harold Lawrence, and C. Robert Fine...A treasure!
-Контейнер: FLAC (*.flac)
Тип рипа: tracks
Разрядность: 24/96
Количество каналов: 2.0

Динамический диапазон

foobar2000 1.1.6 / Dynamic Range Meter 1.1.1
log date: 2015-08-30 15:57:28
Analyzed: Eastman-Rochester “POPS” Orchestra / Frederick Fennell Conducts The Music Of Leroy Anderson
DR Peak RMS Duration Track
DR14 -3.50 dB -22.33 dB 2:55 01-Belle Of The Ball
DR17 -5.55 dB -26.93 dB 3:40 02-Horse And Buggy
DR17 -3.01 dB -24.97 dB 2:26 03-The Waltzing Cat
DR15 -5.53 dB -24.57 dB 3:37 04-Blue Tango
DR12 -10.00 dB -27.24 dB 3:02 05-Summer Skies
DR14 -2.99 dB -23.18 dB 3:37 06-Song Of The Bells
DR16 -9.68 dB -28.30 dB 1:45 07-The Typewriter
DR13 -3.66 dB -26.02 dB 2:32 08-The Syncopated Clock
DR13 -6.15 dB -24.44 dB 2:44 09-The Girl In Satin
DR13 -7.79 dB -26.57 dB 2:56 10-China Doll
DR15 -5.84 dB -25.33 dB 3:50 11-Saraband
DR15 -2.95 dB -23.58 dB 3:53 12-Fiddle-Faddle
DR14 -6.28 dB -23.98 dB 2:53 13-Sleigh Ride
DR12 -6.99 dB -23.57 dB 3:51 14-Serenata
DR15 -2.60 dB -24.08 dB 2:35 15-Promenade
DR13 -0.30 dB -20.36 dB 2:45 16-Chicken Reel
DR15 -4.04 dB -25.96 dB 3:13 17-Phantom Regiment
DR13 -8.04 dB -25.13 dB 1:47 18-Jazz Legato
DR12 -0.45 dB -20.65 dB 1:59 19-Jazz Pizzicato
DR14 -0.55 dB -22.55 dB 2:33 20-Plink Plank Plunk
DR12 -7.68 dB -26.17 dB 2:05 21-The Bluebells Of Scotland
DR11 -2.61 dB -22.43 dB 2:52 22-The First Day Of Spring
DR12 -2.53 dB -20.86 dB 4:32 23-Song Of Jupiter
Number of tracks: 23
Official DR value: DR14
Samplerate: 96000 Hz
Channels: 2
Bits per sample: 24
Bitrate: 3063 kbps
Codec: FLAC

Скриншот спектра частот

Источник (релизер): qobuz.com
Torrent: Registered [ 2016-03-20 12:43 ] · EF1DA70D79DBDA4351647BEAE6D2C2591C4AEE19

Download .torrent


17 KB

Status: checked
Completed: 0 times
Size: 1.47 GB

Quick Reply


Heads necessary to send messages to enable JavaScript
Display posts:    

Current time is: 24-Oct 18:57

All times are UTC + 3

You can post new topics in this forum
You can reply to topics in this forum
You cannot edit your posts in this forum
You cannot delete your posts in this forum
You cannot vote in polls in this forum
You cannot attach files in this forum
You can download files in this forum