[TR24][SM][OF] Johannes Brahms - Piano Concertos Nos. 1 & 2; 7 Fantasien op. 116 (Emil Gilels, Berliner Philharmoniker, Eugen Jochum) - 1972/76/2015 (Classical)


Статистика раздачи [Обновить пиров]
Размер:  2.07 GB   |    Зарегистрирован:  8 месяцев 15 дней   |    Скачан:  0 раз

Полного источника не было: Никогда

 
   
 
 
 

[Цитировать]

Johannes Brahms - Piano Concertos Nos. 1 & 2; 7 Fantasien op. 116 (Emil Gilels, Berliner Philharmoniker, Eugen Jochum)
Год издания: 1972/76/2015
Жанр: Classical
Издатель (лейбл): Deutsche Grammophon
Продолжительность: 02:05:05
Наличие сканов: да
Исполнители:
Emil Gilels, piano
Berliner Philharmoniker (#1-7)
Eugen Jochum, conductor (#1-7)
Треклист:
Piano Concerto No.1 In D Minor, Op.15:
01. 1. Maestoso - Poco piu moderato (24:13)
02. 2. Adagio (14:49)
03. 3. Rondo (Allegro non troppo) (12:39)
Piano Concerto No.2 In B Flat, Op.83:
04. 1. Allegro non troppo (18:17)
05. 2. Allegro appassionato (09:29)
06. 3. Andante - Piu adagio (14:02)
07. 4. Allegretto grazioso - Un poco piu presto (09:52)
Fantasias (7 Piano Pieces), Op.116:
08. 1. Capriccio In D Minor (02:12)
09. 2. Intermezzo In A Minor (03:35)
10. 3. Capriccio In G Minor (03:13)
11. 4. Intermezzo In E Major (04:22)
12. 5. Intermezzo In E Minor (03:00)
13. 6. Intermezzo In E Major (03:06)
14. 7. Capriccio In D Minor (02:16)
-
Контейнер: FLAC (*.flac)
Тип рипа: tracks
Разрядность: 24bit / 96kHz
Количество каналов: 2.0-

Динамический диапазон - DR

foobar2000 1.3.2 / Замер динамического диапазона (DR) 1.1.1
Дата отчёта: 2015-08-30 18:22:28
--------------------------------------------------------------------------------
Анализ: Emil Gilels, Associated Performer, Main Artist, Piano - Berliner Philharmoniker, Main Artist, Orchestra - Eugen Jochum, Conductor, Main Artist - Johannes Brahms, Composer / Emil Gilels : Brahms: The Piano Concertos; Fantasien Op. 116 (1-6)
Emil Gilels, Associated Performer, Main Artist, Piano - Johannes Brahms, Composer / Emil Gilels : Brahms: The Piano Concertos; Fantasien Op. 116 (7-13)
Emil Gilels, Associated Performer, Main Artist, Piano - Ottomar Borwitzky, Associated Performer, Cello, Main Artist - Berliner Philharmoniker, Main Artist, Orchestra - Eugen Jochum, Conductor, Main Artist - Johannes Brahms, Composer / Emil Gilels : Brahms: The Piano Concertos; Fantasien Op. 116 (14)
--------------------------------------------------------------------------------
DR Пики RMS Продолжительность трека
--------------------------------------------------------------------------------
DR13 -0.58 дБ -19.68 дБ 24:13 01-Piano Concerto No.1 In D Minor, Op.15:1. Maestoso - Poco più moderato
DR15 -3.16 дБ -24.93 дБ 14:49 02-Piano Concerto No.1 In D Minor, Op.15:2. Adagio
DR13 -1.12 дБ -19.59 дБ 12:39 03-Piano Concerto No.1 In D Minor, Op.15:3. Rondo (Allegro non troppo)
DR13 -0.52 дБ -19.52 дБ 18:17 04-Piano Concerto No.2 In B Flat, Op.83:1. Allegro non troppo
DR12 -1.02 дБ -18.65 дБ 9:29 05-Piano Concerto No.2 In B Flat, Op.83:2. Allegro appassionato
DR12 -1.26 дБ -20.60 дБ 9:52 07-Piano Concerto No.2 In B Flat, Op.83:4. Allegretto grazioso - Un poco più presto
DR12 -2.37 дБ -19.56 дБ 2:12 8/14-Fantasias (7 Piano Pieces), Op.116:1. Capriccio In D Minor
DR14 -9.84 дБ -30.20 дБ 3:35 9/14-Fantasias (7 Piano Pieces), Op.116:2. Intermezzo In A Minor
DR14 -1.56 дБ -20.53 дБ 3:13 10/14-Fantasias (7 Piano Pieces), Op.116:3. Capriccio In G Minor
DR15 -9.47 дБ -32.11 дБ 4:22 11/14-Fantasias (7 Piano Pieces), Op.116:4. Intermezzo In E Major
DR14 -8.54 дБ -31.56 дБ 3:00 12/14-Fantasias (7 Piano Pieces), Op.116:5. Intermezzo In E Minor
DR14 -6.56 дБ -27.63 дБ 3:06 13/14-Fantasias (7 Piano Pieces), Op.116:6. Intermezzo In E Major
DR12 -2.01 дБ -19.16 дБ 2:16 14/14-Fantasias (7 Piano Pieces), Op.116:7. Capriccio In D Minor
DR15 -4.44 дБ -26.74 дБ 14:02 06-Piano Concerto No.2 In B Flat, Op.83:3. Andante - Più adagio
--------------------------------------------------------------------------------
Количество треков: 14
Реальные значения DR: DR13
Частота: 96000 Гц
Каналов: 2
Разрядность: 24
Битрейт: 2292 кбит/с
Кодек: FLAC
================================================================================
[teatrix.ru].t22152.torrent 
Торрент: Зарегистрирован [ 2016-03-20 12:43 ] · 198B938D57965CAA2FE50038AC6E8CD90BC9F86B

Скачать .torrent

Скачать

12 KB

Статус: проверено
Скачан: 0 раз
Размер: 2.07 GB
terms.php



Быстрый ответ

Имя:

      
Для отправки сообщений необходимо включить JavaScript
Показать сообщения:    

Текущее время: 04-Дек 17:20

Часовой пояс: UTC + 3


Вы можете начинать темы
Вы можете отвечать на сообщения
Вы не можете редактировать свои сообщения
Вы не можете удалять свои сообщения
Вы не можете голосовать в опросах
Вы не можете прикреплять файлы к сообщениям
Вы можете скачивать файлы