(Classical) Blue Heron Renaissance Choir, Scott Metcalfe · Capturing Music ~ The Story of Notation (P. Diaconus, Leonin, Perotin, W. de Wycombe, P. de Cruce, P. de Vitry, G. de Machaut, F. Landini, etc.) · 2014, FLAC (tracks+.cue) lossless


Статистика раздачи [Обновить пиров]
Размер:  731 MB   |    Зарегистрирован:  8 месяцев 20 дней   |    Скачан:  0 раз

Полного источника не было: Никогда

 
   
 
 
 

[Цитировать]

Capturing Music
The Story of Notation

Жанр: classical
Страна-производитель диска: USA
Год издания диска: 2014
Издатель: W. W. Norton & Company
Номер по каталогу: отсутствует, это книга + компакт-диск
Дата записи: ?
Аудиокодек: FLAC
Тип рипа: tracks+.cue
Битрейт аудио: lossless
Продолжительность: 01:08:39
Источник: what.cd
Книга в содержимом раздачи частично представлена (внимание: 427 Мбайт!)
Исполнители:
Blue Heron Renaissance Choir
Scott Metcalfe, директор
Композиторы: Anonymous (1–3, 7–8, 10, 14), Paulus Diaconus (4), Léonin (5), Pérotin (6), W. de Wycombe (9), Petrus de Cruce (11), Philippe de Vitry (12), Guillaume de Machaut (13), Francesco Landini (15), Jacob Senleches (16), Baude Cordier (17)

Треклист

01. Gregorian chant, Introit “Ad te levavi” (2:14)
02. Gregorian chant, Introit “Resurrexi” (3:56)
03. Gregorian chant, Alleluia “Pascha nostrum” (3:58)
04. Hymn, “Ut queant laxis” (2:26)
05. Alleluia “Pascha nostrum” (6:20)
06. Alleluia “Pascha nostrum” (7:59)
07. Clausula, “Latus est” (1:23)
08. Motet, “Immolata paschali victima” (1:26)
09. Sumer is icumen in / Perspice Christicola (2:02)
10. Motet, “Diex qui porroit / En grant dolour / Aptatur” (1:19)
11. Motet, “Aucun ont trouvé / Lonctans me sui / Annun[tiantes]” (3:38)
12. Motet, “Garrit gallus / In nova fert” (2:41)
13. Biauté qui toutes autres pere (6:07)
14. Io son un pellegrin (3:05)
15. Musica son (3:27)
16. En attendant, Esperance conforte (11:53)
17. Belle, bonne, sage, plaisant (4:44)

Лог создания рипа

Exact Audio Copy V1.0 beta 3 from 29. August 2011
EAC extraction logfile from 14. June 2015, 20:21
Blue Heron / Capturing Music
Used drive : HL-DT-STDVD-RAM GH40L Adapter: 2 ID: 1
Read mode : Secure
Utilize accurate stream : Yes
Defeat audio cache : Yes
Make use of C2 pointers : No
Read offset correction : 667
Overread into Lead-In and Lead-Out : No
Fill up missing offset samples with silence : Yes
Delete leading and trailing silent blocks : No
Null samples used in CRC calculations : Yes
Used interface : Native Win32 interface for Win NT & 2000
Gap handling : Appended to previous track
Used output format : User Defined Encoder
Selected bitrate : 1024 kBit/s
Quality : High
Add ID3 tag : No
Command line compressor : C:\Program Files\Exact Audio Copy\FLAC\FLAC.EXE
Additional command line options : -8 -V -T "ARTIST=%artist%" -T "TITLE=%title%" -T "ALBUM=%albumtitle%" -T "DATE=%year%" -T "TRACKNUMBER=%tracknr%" -T "GENRE=%genre%" -T "COMMENT=%comment%" -T "BAND=%albuminterpret%" -T "ALBUMARTIST=%albuminterpret%" -T "COMPOSER=%composer%" %haslyrics%--tag-from-file=LYRICS="%lyricsfile%"%haslyrics% -T "DISCNUMBER=%cdnumber%" -T "TOTALDISCS=%totalcds%" -T "TOTALTRACKS=%numtracks%" %hascover%--picture="%coverfile%"%hascover% %source% -o %dest%
TOC of the extracted CD
Track | Start | Length | Start sector | End sector
---------------------------------------------------------
1 | 0:00.00 | 2:14.25 | 0 | 10074
2 | 2:14.25 | 3:55.71 | 10075 | 27770
3 | 6:10.21 | 3:58.25 | 27771 | 45645
4 | 10:08.46 | 2:26.09 | 45646 | 56604
5 | 12:34.55 | 6:19.38 | 56605 | 85067
6 | 18:54.18 | 7:59.13 | 85068 | 121005
7 | 26:53.31 | 1:23.04 | 121006 | 127234
8 | 28:16.35 | 1:25.45 | 127235 | 133654
9 | 29:42.05 | 2:02.27 | 133655 | 142831
10 | 31:44.32 | 1:18.67 | 142832 | 148748
11 | 33:03.24 | 3:37.68 | 148749 | 165091
12 | 36:41.17 | 2:41.35 | 165092 | 177201
13 | 39:22.52 | 6:07.00 | 177202 | 204726
14 | 45:29.52 | 3:05.14 | 204727 | 218615
15 | 48:34.66 | 3:27.10 | 218616 | 234150
16 | 52:02.01 | 11:52.55 | 234151 | 287605
17 | 63:54.56 | 4:44.25 | 287606 | 308930
Track 1
Filename C:\Users\Ian\EACr\01 - Anonymous - Michael Barrett, soloist - Introit ''Ad te levavi''.wav
Pre-gap length 0:00:02.00
Peak level 67.2 %
Extraction speed 1.5 X
Track quality 100.0 %
Test CRC FB65AFC2
Copy CRC FB65AFC2
Track not present in AccurateRip database
Copy OK
Track 2
Filename C:\Users\Ian\EACr\02 - Anonymous - David McFerrin, soloist - Introit ''Resurrexi''.wav
Peak level 84.1 %
Extraction speed 1.9 X
Track quality 100.0 %
Test CRC C8C7FDAB
Copy CRC C8C7FDAB
Track not present in AccurateRip database
Copy OK
Track 3
Filename C:\Users\Ian\EACr\03 - Anonymous - Paul Guttry, soloist - Alleluia ''Pascha nostrum''.wav
Peak level 43.1 %
Extraction speed 2.1 X
Track quality 100.0 %
Test CRC 0304B9DC
Copy CRC 0304B9DC
Track not present in AccurateRip database
Copy OK
Track 4
Filename C:\Users\Ian\EACr\04 - Paulus Diaconus - Blue Heron - Hymn ''Ut queant laxis''.wav
Peak level 72.4 %
Extraction speed 2.1 X
Track quality 100.0 %
Test CRC F05155C7
Copy CRC F05155C7
Track not present in AccurateRip database
Copy OK
Track 5
Filename C:\Users\Ian\EACr\05 - Léonin - Jason McStoots, soloist - Leoninus, Alleluia ''Pascha nostrum''.wav
Peak level 88.3 %
Extraction speed 2.5 X
Track quality 100.0 %
Test CRC BB3CA199
Copy CRC BB3CA199
Track not present in AccurateRip database
Copy OK
Track 6
Filename C:\Users\Ian\EACr\06 - Pérotin - Blue Heron - Perotinus, Alleluia ''Pascha nostrum''.wav
Peak level 92.4 %
Extraction speed 2.8 X
Track quality 100.0 %
Test CRC E4E44C9D
Copy CRC E4E44C9D
Track not present in AccurateRip database
Copy OK
Track 7
Filename C:\Users\Ian\EACr\07 - Anonymous - Mark Sprinkle, soloist - Clausula, ''Latus est''.wav
Peak level 72.3 %
Extraction speed 2.2 X
Track quality 100.0 %
Test CRC 5EB1CAF7
Copy CRC 5EB1CAF7
Track not present in AccurateRip database
Copy OK
Track 8
Filename C:\Users\Ian\EACr\08 - Anonymous - Mark Sprinkle and Jason McStoots - Motet,''Immolata paschali victima''.wav
Peak level 47.4 %
Extraction speed 2.2 X
Track quality 100.0 %
Test CRC F5BED9C1
Copy CRC F5BED9C1
Track not present in AccurateRip database
Copy OK
Track 9
Filename C:\Users\Ian\EACr\09 - W. de Wycombe - Blue Heron - Sumer is icumen in, Perspice Christicola.wav
Peak level 82.9 %
Extraction speed 2.4 X
Track quality 100.0 %
Test CRC 2022E178
Copy CRC 2022E178
Track not present in AccurateRip database
Copy OK
Track 10
Filename C:\Users\Ian\EACr\10 - Anonymous - Blue Heron - Motet, ''Diex qui porroit ; En grant dolour ; Aptatur''.wav
Peak level 47.2 %
Extraction speed 2.1 X
Track quality 100.0 %
Test CRC 1F094DCF
Copy CRC 1F094DCF
Track not present in AccurateRip database
Copy OK
Track 11
Filename C:\Users\Ian\EACr\11 - Petrus de Cruce - Blue Heron - Motet, ''Aucun ont trouvé ; Lonctans me sui ; Annun[tiantes]''.wav
Peak level 75.3 %
Extraction speed 3.0 X
Track quality 100.0 %
Test CRC D287AE80
Copy CRC D287AE80
Track not present in AccurateRip database
Copy OK
Track 12
Filename C:\Users\Ian\EACr\12 - Philippe de Vitry - Blue Heron - Motet, ''Garrit gallus ; In nova fert''.wav
Peak level 79.4 %
Extraction speed 2.9 X
Track quality 100.0 %
Test CRC 08C2C368
Copy CRC 08C2C368
Track not present in AccurateRip database
Copy OK
Track 13
Filename C:\Users\Ian\EACr\13 - Guillaume de Machaut - Blue Heron - Biauté qui toutes autres pere.wav
Peak level 82.0 %
Extraction speed 3.3 X
Track quality 100.0 %
Test CRC 25E172DF
Copy CRC 25E172DF
Track not present in AccurateRip database
Copy OK
Track 14
Filename C:\Users\Ian\EACr\14 - Anonymous - Owen McIntosh and Sumner Thompson - Io son un pellegrin.wav
Peak level 53.5 %
Extraction speed 3.1 X
Track quality 100.0 %
Test CRC DC8DE9AC
Copy CRC DC8DE9AC
Track not present in AccurateRip database
Copy OK
Track 15
Filename C:\Users\Ian\EACr\15 - Francesco Landini - Blue Heron - Musica son.wav
Peak level 85.1 %
Extraction speed 2.8 X
Track quality 99.9 %
Test CRC 56D5E941
Copy CRC 56D5E941
Track not present in AccurateRip database
Copy OK
Track 16
Filename C:\Users\Ian\EACr\16 - Jacob Senleches - Blue Heron - En attendant, Esperance conforte.wav
Peak level 52.5 %
Extraction speed 3.8 X
Track quality 100.0 %
Test CRC 601A8C6D
Copy CRC 601A8C6D
Track not present in AccurateRip database
Copy OK
Track 17
Filename C:\Users\Ian\EACr\17 - Baude Cordier - Blue Heron - Belle, bonne, sage, plaisant.wav
Peak level 32.3 %
Extraction speed 3.8 X
Track quality 100.0 %
Test CRC 0CC06E59
Copy CRC 0CC06E59
Track not present in AccurateRip database
Copy OK
None of the tracks are present in the AccurateRip database
No errors occurred
End of status report
---- CUETools DB Plugin V2.1.3
[CTDB TOCID: 3oRPdWULto67QEO4LdL.VVfBHKU-] disk not present in database, Submit result: 3oRPdWULto67QEO4LdL.VVfBHKU- has been uploaded
==== Log checksum 8E5A7FBA9DD25B1AB4AFE3AE8E7AF7FCCD9180C00D8ADE8840359F793A4E5151 ====

Содержание индексной карты (.CUE)

REM DATE 2014
REM DISCID EF101711
REM COMMENT "ExactAudioCopy v1.0b3"
PERFORMER "Blue Heron"
TITLE "Capturing Music"
FILE "01. Gregorian chant, Introit “Ad te levavi”.wav" WAVE
TRACK 01 AUDIO
TITLE "Gregorian chant, Introit “Ad te levavi”"
PERFORMER "Blue Heron"
INDEX 01 00:00:00
FILE "02. Gregorian chant, Introit “Resurrexi”.wav" WAVE
TRACK 02 AUDIO
TITLE "Gregorian chant, Introit “Resurrexi”"
PERFORMER "Blue Heron"
INDEX 01 00:00:00
FILE "03. Gregorian chant, Alleluia “Pascha nostrum”.wav" WAVE
TRACK 03 AUDIO
TITLE "Gregorian chant, Alleluia “Pascha nostrum”"
PERFORMER "Blue Heron"
INDEX 01 00:00:00
FILE "04. Hymn, “Ut queant laxis”.wav" WAVE
TRACK 04 AUDIO
TITLE "Hymn, “Ut queant laxis”"
PERFORMER "Blue Heron"
INDEX 01 00:00:00
FILE "05. Alleluia “Pascha nostrum”.wav" WAVE
TRACK 05 AUDIO
TITLE "Alleluia “Pascha nostrum”"
PERFORMER "Blue Heron"
INDEX 01 00:00:00
FILE "06. Alleluia “Pascha nostrum”.wav" WAVE
TRACK 06 AUDIO
TITLE "Alleluia “Pascha nostrum”"
PERFORMER "Blue Heron"
INDEX 01 00:00:00
FILE "07. Clausula, “Latus est”.wav" WAVE
TRACK 07 AUDIO
TITLE "Clausula, “Latus est”"
PERFORMER "Blue Heron"
INDEX 01 00:00:00
FILE "08. Motet, “Immolata paschali victima”.wav" WAVE
TRACK 08 AUDIO
TITLE "Motet, “Immolata paschali victima”"
PERFORMER "Blue Heron"
INDEX 01 00:00:00
FILE "09. Sumer is icumen in — Perspice Christicola.wav" WAVE
TRACK 09 AUDIO
TITLE "Sumer is icumen in / Perspice Christicola"
PERFORMER "Blue Heron"
INDEX 01 00:00:00
FILE "10. Motet, “Diex qui porroit — En grant dolour — Aptatur”.wav" WAVE
TRACK 10 AUDIO
TITLE "Motet, “Diex qui porroit / En grant dolour / Aptatur”"
PERFORMER "Blue Heron"
INDEX 01 00:00:00
FILE "11. Motet, “Aucun ont trouvé — Lonctans me sui — Annun[tiantes]”.wav" WAVE
TRACK 11 AUDIO
TITLE "Motet, “Aucun ont trouvé / Lonctans me sui / Annun[tiantes]”"
PERFORMER "Blue Heron"
INDEX 01 00:00:00
FILE "12. Motet, “Garrit gallus — In nova fert”.wav" WAVE
TRACK 12 AUDIO
TITLE "Motet, “Garrit gallus / In nova fert”"
PERFORMER "Blue Heron"
INDEX 01 00:00:00
FILE "13. Biauté qui toutes autres pere.wav" WAVE
TRACK 13 AUDIO
TITLE "Biauté qui toutes autres pere"
PERFORMER "Blue Heron"
INDEX 01 00:00:00
FILE "14. Io son un pellegrin.wav" WAVE
TRACK 14 AUDIO
TITLE "Io son un pellegrin"
PERFORMER "Blue Heron"
INDEX 01 00:00:00
FILE "15. Musica son.wav" WAVE
TRACK 15 AUDIO
TITLE "Musica son"
PERFORMER "Blue Heron"
INDEX 01 00:00:00
FILE "16. En attendant, Esperance conforte.wav" WAVE
TRACK 16 AUDIO
TITLE "En attendant, Esperance conforte"
PERFORMER "Blue Heron"
INDEX 01 00:00:00
FILE "17. Belle, bonne, sage, plaisant.wav" WAVE
TRACK 17 AUDIO
TITLE "Belle, bonne, sage, plaisant"
PERFORMER "Blue Heron"
INDEX 01 00:00:00
[teatrix.ru].t22153.torrent 
Торрент: Зарегистрирован [ 2016-03-20 12:43 ] · 77B137BFED4F444AF279A476421EA21532FCCFF2

Скачать .torrent

Скачать

20 KB

Статус: проверено
Скачан: 0 раз
Размер: 731 MB
terms.php



Быстрый ответ

Имя:

      
Для отправки сообщений необходимо включить JavaScript
Показать сообщения:    

Текущее время: 09-Дек 18:25

Часовой пояс: UTC + 3


Вы можете начинать темы
Вы можете отвечать на сообщения
Вы не можете редактировать свои сообщения
Вы не можете удалять свои сообщения
Вы не можете голосовать в опросах
Вы не можете прикреплять файлы к сообщениям
Вы можете скачивать файлы